<?xml version="1.0" standalone="no"?><!DOCTYPE svg PUBLIC "-//W3C//DTD SVG 1.1//EN" "http://www.w3.org/Graphics/SVG/1.1/DTD/svg11.dtd" ><svg xmlns="http://www.w3.org/2000/svg"><metadata></metadata><defs><font id="FontForge 2.0 : Material Icons : 5-3-2019" horiz-adv-x="512"><font-face font-family="Material Icons" font-weight="400" font-stretch="normal" units-per-em="512" panose-1="2 0 5 3 0 0 0 0 0 0" ascent="512" descent="0" x-height="0" bbox="0 0 512 516" underline-thickness="50" underline-position="-125" unicode-range="U+0030-fffd" /><missing-glyph horiz-adv-x="512" d="M17 0 l0 341 l136 0 l0 -341 l-136 0 ZM34 17 l102 0 l0 307 l-102 0 l0 -307 Z" /><glyph glyph-name="" unicode="0" d="M0 0 l0 0 Z" /><glyph glyph-name="" unicode="1" d="M0 0 l0 0 Z" /><glyph glyph-name="" unicode="2" d="M0 0 l0 0 Z" /><glyph glyph-name="" unicode="3" d="M0 0 l0 0 Z" /><glyph glyph-name="" unicode="4" d="M0 0 l0 0 Z" /><glyph glyph-name="" unicode="5" d="M0 0 l0 0 Z" /><glyph glyph-name="" unicode="6" d="M0 0 l0 0 Z" /><glyph glyph-name="" unicode="7" d="M0 0 l0 0 Z" /><glyph glyph-name="" unicode="8" d="M0 0 l0 0 Z" /><glyph glyph-name="" unicode="9" d="M0 0 l0 0 Z" /><glyph glyph-name="" unicode="_" d="M0 0 l0 0 Z" /><glyph glyph-name="" unicode="a" d="M0 0 l0 0 Z" /><glyph glyph-name="" unicode="b" d="M0 0 l0 0 Z" /><glyph glyph-name="" unicode="c" d="M0 0 l0 0 Z" /><glyph glyph-name="" unicode="d" d="M0 0 l0 0 Z" /><glyph glyph-name="" unicode="e" d="M0 0 l0 0 Z" /><glyph glyph-name="" unicode="f" d="M0 0 l0 0 Z" /><glyph glyph-name="" unicode="g" d="M0 0 l0 0 Z" /><glyph glyph-name="" unicode="h" d="M0 0 l0 0 Z" /><glyph glyph-name="" unicode="i" d="M0 0 l0 0 Z" /><glyph glyph-name="" unicode="j" d="M0 0 l0 0 Z" /><glyph glyph-name="" unicode="k" d="M0 0 l0 0 Z" /><glyph glyph-name="" unicode="l" d="M0 0 l0 0 Z" /><glyph glyph-name="" unicode="m" d="M0 0 l0 0 Z" /><glyph glyph-name="" unicode="n" d="M0 0 l0 0 Z" /><glyph glyph-name="" unicode="o" d="M0 0 l0 0 Z" /><glyph glyph-name="" unicode="p" d="M0 0 l0 0 Z" /><glyph glyph-name="" unicode="q" d="M0 0 l0 0 Z" /><glyph glyph-name="" unicode="r" d="M0 0 l0 0 Z" /><glyph glyph-name="" unicode="s" d="M0 0 l0 0 Z" /><glyph glyph-name="" unicode="t" d="M0 0 l0 0 Z" /><glyph glyph-name="" unicode="u" d="M0 0 l0 0 Z" /><glyph glyph-name="" unicode="v" d="M0 0 l0 0 Z" /><glyph glyph-name="" unicode="w" d="M0 0 l0 0 Z" /><glyph glyph-name="" unicode="x" d="M0 0 l0 0 Z" /><glyph glyph-name="" unicode="y" d="M0 0 l0 0 Z" /><glyph glyph-name="" unicode="z" d="M0 0 l0 0 Z" /><glyph glyph-name="" unicode="&#xe000;" d="M277 235 l0 128 l-42 0 l0 -128 l42 0 ZM277 149 l0 43 l-42 0 l0 -43 l42 0 ZM105.5 406.5 q62.5 62.5 150.5 62.5 q88 0 150.5 -62.5 q62.5 -62.5 62.5 -150.5 q0 -88 -62.5 -150.5 q-62.5 -62.5 -150.5 -62.5 q-88 0 -150.5 62.5 q-62.5 62.5 -62.5 150.5 q0 88 62.5 150.5 Z" /><glyph glyph-name="" unicode="&#xe001;" d="M135.5 135.5 q50.5 -50.5 120.5 -50.5 q70 0 120.5 50.5 q50.5 50.5 50.5 120.5 q0 70 -50.5 120.5 q-50.5 50.5 -120.5 50.5 q-70 0 -120.5 -50.5 q-50.5 -50.5 -50.5 -120.5 q0 -70 50.5 -120.5 ZM105.5 406.5 q62.5 62.5 150.5 62.5 q88 0 150.5 -62.5 q62.5 -62.5 62.5 -150.5 q0 -88 -62.5 -150.5 q-62.5 -62.5 -150.5 -62.5 q-88 0 -150.5 62.5 q-62.5 62.5 -62.5 150.5 q0 88 62.5 150.5 ZM235 363 l42 0 l0 -128 l-42 0 l0 128 ZM235 192 l42 0 l0 -43 l-42 0 l0 43 Z" /><glyph glyph-name="" unicode="&#xe002;" d="M277 213 l0 86 l-42 0 l0 -86 l42 0 ZM277 128 l0 43 l-42 0 l0 -43 l42 0 ZM21 64 l235 405 l235 -405 l-470 0 Z" /><glyph glyph-name="" unicode="&#xe003;" d="M341 234 l0 43 l-64 0 l0 64 l-42 0 l0 -64 l-64 0 l0 -43 l64 0 l0 -64 l42 0 l0 64 l64 0 ZM403 153 l45 -45 l0 -23 l-384 0 l0 23 l45 45 l0 124 q0 48 33 90 q33 42 80 53 l0 15 q0 14 10 24 q10 10 24 10 q14 0 24 -10 q10 -10 10 -24 l0 -15 q49 -11 81 -51.5 q32 -40.5 32 -91.5 l0 -124 ZM214 64 l84 0 q0 -17 -12.5 -30 q-12.5 -13 -29.5 -13 q-17 0 -29.5 13 q-12.5 13 -12.5 30 Z" /><glyph glyph-name="" unicode="&#xe004;" d="M256 43 q-18 0 -30.5 12 q-12.5 12 -12.5 30 l86 0 q0 -17 -13 -29.5 q-13 -12.5 -30 -12.5 ZM277 256 l0 85 l-42 0 l0 -85 l42 0 ZM277 171 l0 42 l-42 0 l0 -42 l42 0 ZM384 171 l43 -43 l0 -21 l-342 0 l0 21 l43 43 l0 106 q0 50 25.5 87 q25.5 37 70.5 48 l0 15 q0 13 9 22.5 q9 9.5 23 9.5 q14 0 23 -9.5 q9 -9.5 9 -22.5 l0 -15 q45 -11 70.5 -48 q25.5 -37 25.5 -87 l0 -106 Z" /><glyph glyph-name="" unicode="&#xe019;" d="M241 271 q6 6 15 6 q9 0 15 -6 q6 -6 6 -15 q0 -9 -6 -15 q-6 -6 -15 -6 q-9 0 -15 6 q-6 6 -6 15 q0 9 6 15 ZM188 188 q28 -28 68 -28 q40 0 68 28 q28 28 28 68 q0 40 -28 68 q-28 28 -68 28 q-40 0 -68 -28 q-28 -28 -28 -68 q0 -40 28 -68 ZM105.5 406.5 q62.5 62.5 150.5 62.5 q88 0 150.5 -62.5 q62.5 -62.5 62.5 -150.5 q0 -88 -62.5 -150.5 q-62.5 -62.5 -150.5 -62.5 q-88 0 -150.5 62.5 q-62.5 62.5 -62.5 150.5 q0 88 62.5 150.5 Z" /><glyph glyph-name="" unicode="&#xe01b;" d="M134 241 q-6 6 -6 15 q0 9 6 15 q6 6 15 6 q9 0 15.5 -6 q6.5 -6 6.5 -15 q0 -9 -6.5 -15 q-6.5 -6 -15.5 -6 q-9 0 -15 6 ZM378 271 q6 -6 6 -15 q0 -9 -6 -15 q-6 -6 -15 -6 q-9 0 -15.5 6 q-6.5 6 -6.5 15 q0 9 6.5 15 q6.5 6 15.5 6 q9 0 15 -6 ZM235 448 l21 0 q80 0 136 -56 q56 -56 56 -136 q0 -80 -56 -136 q-56 -56 -136 -56 q-80 0 -136 56 q-56 56 -56 136 q0 96 77 153 l0 1 l145 -145 l-30 -30 l-116 115 q-33 -41 -33 -94 q0 -62 43.5 -105.5 q43.5 -43.5 105.5 -43.5 q62 0 105.5 43.5 q43.5 43.5 43.5 105.5 q0 56 -37 98 q-37 42 -91 50 l0 -41 l-42 0 l0 85 ZM241 134 q-6 6 -6 15 q0 9 6 15.5 q6 6.5 15 6.5 q9 0 15 -6.5 q6 -6.5 6 -15.5 q0 -9 -6 -15 q-6 -6 -15 -6 q-9 0 -15 6 Z" /><glyph glyph-name="" unicode="&#xe01c;" d="M384 277 l0 22 q0 9 -6 15 q-6 6 -15 6 l-64 0 q-9 0 -15.5 -6 q-6.5 -6 -6.5 -15 l0 -86 q0 -9 6.5 -15 q6.5 -6 15.5 -6 l64 0 q9 0 15 6 q6 6 6 15 l0 22 l-32 0 l0 -11 l-43 0 l0 64 l43 0 l0 -11 l32 0 ZM235 277 l0 22 q0 9 -6.5 15 q-6.5 6 -15.5 6 l-64 0 q-9 0 -15 -6 q-6 -6 -6 -15 l0 -86 q0 -9 6 -15 q6 -6 15 -6 l64 0 q9 0 15.5 6 q6.5 6 6.5 15 l0 22 l-32 0 l0 -11 l-43 0 l0 64 l43 0 l0 -11 l32 0 ZM405 427 q17 0 30 -13 q13 -13 13 -30 l0 -256 q0 -17 -13 -30 q-13 -13 -30 -13 l-298 0 q-18 0 -30.5 12.5 q-12.5 12.5 -12.5 30.5 l0 256 q0 18 12.5 30.5 q12.5 12.5 30.5 12.5 l298 0 Z" /><glyph glyph-name="" unicode="&#xe01d;" d="M341 320 l86 0 l0 -235 l-86 0 l0 235 ZM85 85 l0 171 l86 0 l0 -171 l-86 0 ZM213 85 l0 342 l86 0 l0 -342 l-86 0 Z" /><glyph glyph-name="" unicode="&#xe01e;" d="M320 320 l0 43 l-128 0 l0 -214 l128 0 l0 43 l-85 0 l0 43 l85 0 l0 42 l-85 0 l0 43 l85 0 ZM405 448 q17 0 30 -13 q13 -13 13 -30 l0 -298 q0 -17 -13 -30 q-13 -13 -30 -13 l-298 0 q-17 0 -30 13 q-13 13 -13 30 l0 298 q0 17 13 30 q13 13 30 13 l298 0 Z" /><glyph glyph-name="" unicode="&#xe01f;" d="M277 384 l182 -128 l-182 -128 l0 256 ZM85 128 l0 256 l182 -128 l-182 -128 Z" /><glyph glyph-name="" unicode="&#xe020;" d="M245 256 l182 128 l0 -256 l-182 128 ZM235 128 l-182 128 l182 128 l0 -256 Z" /><glyph glyph-name="" unicode="&#xe021;" d="M352 320 l117 0 l0 -128 l-117 0 l-64 64 l64 64 ZM192 160 l64 64 l64 -64 l0 -117 l-128 0 l0 117 ZM160 320 l64 -64 l-64 -64 l-117 0 l0 128 l117 0 ZM320 352 l-64 -64 l-64 64 l0 117 l128 0 l0 -117 Z" /><glyph glyph-name="" unicode="&#xe023;" d="M261 282.5 q-16 15.5 -16 37.5 q0 22 16 37.5 q16 15.5 38 15.5 q22 0 37.5 -15.5 q15.5 -15.5 15.5 -37.5 q0 -22 -15.5 -37.5 q-15.5 -15.5 -37.5 -15.5 q-22 0 -38 15.5 ZM163 456 q-56 -56 -56 -136 q0 -80 56 -136 l-30 -30 q-69 69 -69 166 q0 97 69 166 l30 -30 ZM363 85 q17 0 29.5 13 q12.5 13 12.5 30 l43 0 q0 -35 -25 -60 q-25 -25 -60 -25 q-19 0 -35 7 q-41 21 -59 76 q-7 22 -36 44 q-41 30 -61 67 q-23 41 -23 83 q0 63 43.5 106 q43.5 43 106.5 43 q63 0 106 -43 q43 -43 43 -106 l-43 0 q0 45 -30.5 76 q-30.5 31 -75.5 31 q-45 0 -76 -31 q-31 -31 -31 -76 q0 -32 17 -63 q14 -27 50 -54 q40 -30 51 -64 q13 -38 36 -50 q8 -4 17 -4 Z" /><glyph glyph-name="" unicode="&#xe024;" d="M309 224 l0 64 l43 0 l0 -64 l-43 0 ZM384 213 l0 86 q0 9 -6 15 q-6 6 -15 6 l-64 0 q-9 0 -15.5 -6 q-6.5 -6 -6.5 -15 l0 -86 q0 -9 6.5 -15 q6.5 -6 15.5 -6 l16 0 l0 -32 l32 0 l0 32 l16 0 q9 0 15 6 q6 6 6 15 ZM235 192 l0 128 l-32 0 l0 -53 l-43 0 l0 53 l-32 0 l0 -128 l32 0 l0 43 l43 0 l0 -43 l32 0 ZM405 427 q17 0 30 -13 q13 -13 13 -30 l0 -256 q0 -17 -13 -30 q-13 -13 -30 -13 l-298 0 q-18 0 -30.5 12.5 q-12.5 12.5 -12.5 30.5 l0 256 q0 18 12.5 30.5 q12.5 12.5 30.5 12.5 l298 0 Z" /><glyph glyph-name="" unicode="&#xe028;" d="M256 128 l0 64 l85 -85 l-85 -86 l0 64 q-70 0 -120.5 50.5 q-50.5 50.5 -50.5 120.5 q0 50 27 91 l31 -31 q-15 -27 -15 -60 q0 -53 37.5 -90.5 q37.5 -37.5 90.5 -37.5 ZM256 427 q70 0 120.5 -50.5 q50.5 -50.5 50.5 -120.5 q0 -50 -27 -91 l-31 31 q15 27 15 60 q0 53 -37.5 90.5 q-37.5 37.5 -90.5 37.5 l0 -64 l-85 85 l85 86 l0 -64 Z" /><glyph glyph-name="" unicode="&#xe029;" d="M369 277 l36 0 q0 -54 -37.5 -94.5 q-37.5 -40.5 -90.5 -48.5 l0 -70 l-42 0 l0 70 q-53 8 -90.5 48.5 q-37.5 40.5 -37.5 94.5 l36 0 q0 -47 33.5 -77.5 q33.5 -30.5 79.5 -30.5 q46 0 79.5 30.5 q33.5 30.5 33.5 77.5 ZM301 232 q-19 -19 -45 -19 q-26 0 -45 19 q-19 19 -19 45 l0 128 q0 26 19 45 q19 19 45 19 q26 0 45 -19 q19 -19 19 -45 l0 -128 q0 -26 -19 -45 Z" /><glyph glyph-name="" unicode="&#xe02a;" d="M369 277 l36 0 q0 -54 -37.5 -94.5 q-37.5 -40.5 -90.5 -48.5 l0 -70 l-42 0 l0 70 q-53 8 -90.5 48.5 q-37.5 40.5 -37.5 94.5 l36 0 q0 -47 33.5 -77.5 q33.5 -30.5 79.5 -30.5 q46 0 79.5 30.5 q33.5 30.5 33.5 77.5 ZM230 407 l0 -132 q0 -10 7.5 -17.5 q7.5 -7.5 18.5 -7.5 q10 0 17.5 7 q7.5 7 7.5 18 l1 132 q0 11 -8 18.5 q-8 7.5 -18 7.5 q-10 0 -18 -7.5 q-8 -7.5 -8 -18.5 ZM301 232 q-19 -19 -45 -19 q-26 0 -45 19 q-19 19 -19 45 l0 128 q0 26 19 45 q19 19 45 19 q26 0 45 -19 q19 -19 19 -45 l0 -128 q0 -26 -19 -45 Z" /><glyph glyph-name="" unicode="&#xe02b;" d="M91 448 l357 -357 l-27 -27 l-89 89 q-22 -14 -55 -19 l0 -70 l-42 0 l0 70 q-53 8 -90.5 48.5 q-37.5 40.5 -37.5 94.5 l36 0 q0 -47 33.5 -77.5 q33.5 -30.5 79.5 -30.5 q25 0 49 11 l-35 35 q-8 -2 -14 -2 q-26 0 -45 19 q-19 19 -19 45 l0 16 l-128 128 l27 27 ZM320 274 l-128 127 l0 4 q0 26 19 45 q19 19 45 19 q26 0 45 -19 q19 -19 19 -45 l0 -131 ZM405 277 q0 -37 -19 -70 l-26 27 q9 20 9 43 l36 0 Z" /><glyph glyph-name="" unicode="&#xe02c;" d="M384 427 l85 0 l0 -299 q0 -17 -12.5 -30 q-12.5 -13 -29.5 -13 l-342 0 q-17 0 -29.5 13 q-12.5 13 -12.5 30 l0 256 q0 17 12.5 30 q12.5 13 29.5 13 l22 0 l42 -86 l64 0 l-42 86 l42 0 l43 -86 l64 0 l-43 86 l43 0 l43 -86 l64 0 l-43 86 Z" /><glyph glyph-name="" unicode="&#xe02e;" d="M405 277 l0 43 l-85 0 l0 85 l-43 0 l0 -85 l-85 0 l0 -43 l85 0 l0 -85 l43 0 l0 85 l85 0 ZM427 469 q17 0 29.5 -12.5 q12.5 -12.5 12.5 -29.5 l0 -256 q0 -17 -12.5 -30 q-12.5 -13 -29.5 -13 l-256 0 q-17 0 -30 13 q-13 13 -13 30 l0 256 q0 17 13 29.5 q13 12.5 30 12.5 l256 0 ZM85 384 l0 -299 l299 0 l0 -42 l-299 0 q-17 0 -29.5 12.5 q-12.5 12.5 -12.5 29.5 l0 299 l42 0 Z" /><glyph glyph-name="" unicode="&#xe02f;" d="M405 363 l0 42 l-213 0 l0 -42 l213 0 ZM320 192 l0 43 l-128 0 l0 -43 l128 0 ZM405 277 l0 43 l-213 0 l0 -43 l213 0 ZM427 469 q17 0 29.5 -12.5 q12.5 -12.5 12.5 -29.5 l0 -256 q0 -17 -12.5 -30 q-12.5 -13 -29.5 -13 l-256 0 q-17 0 -30 13 q-13 13 -13 30 l0 256 q0 17 13 29.5 q13 12.5 30 12.5 l256 0 ZM85 384 l0 -299 l299 0 l0 -42 l-299 0 q-17 0 -29.5 12.5 q-12.5 12.5 -12.5 29.5 l0 299 l42 0 Z" /><glyph glyph-name="" unicode="&#xe030;" d="M85 384 l0 -299 l299 0 l0 -42 l-299 0 q-17 0 -29.5 12.5 q-12.5 12.5 -12.5 29.5 l0 299 l42 0 ZM384 363 l0 42 l-85 0 l0 -117 q-14 11 -32 11 q-22 0 -38 -16 q-16 -16 -16 -38 q0 -22 16 -37.5 q16 -15.5 38 -15.5 q22 0 37.5 15.5 q15.5 15.5 15.5 37.5 l0 118 l64 0 ZM427 469 q17 0 29.5 -12.5 q12.5 -12.5 12.5 -29.5 l0 -256 q0 -17 -12.5 -30 q-12.5 -13 -29.5 -13 l-256 0 q-17 0 -30 13 q-13 13 -13 30 l0 256 q0 17 13 29.5 q13 12.5 30 12.5 l256 0 Z" /><glyph glyph-name="" unicode="&#xe031;" d="M277 235 l0 128 l-42 0 l0 -128 l42 0 ZM277 149 l0 43 l-42 0 l0 -43 l42 0 ZM491 256 l-52 -59 l7 -79 l-77 -17 l-40 -68 l-73 31 l-73 -31 l-40 67 l-77 18 l7 79 l-52 59 l52 60 l-7 78 l77 17 l40 68 l73 -31 l73 31 l40 -68 l77 -17 l-7 -79 l52 -59 Z" /><glyph glyph-name="" unicode="&#xe033;" d="M391 151 q36 45 36 105 q0 70 -50.5 120.5 q-50.5 50.5 -120.5 50.5 q-24 0 -55 -10.5 q-31 -10.5 -50 -25.5 l240 -240 ZM256 85 q24 0 55 10.5 q31 10.5 50 25.5 l-240 240 q-36 -45 -36 -105 q0 -70 50.5 -120.5 q50.5 -50.5 120.5 -50.5 ZM105.5 406.5 q62.5 62.5 150.5 62.5 q88 0 150.5 -62.5 q62.5 -62.5 62.5 -150.5 q0 -88 -62.5 -150.5 q-62.5 -62.5 -150.5 -62.5 q-88 0 -150.5 62.5 q-62.5 62.5 -62.5 150.5 q0 88 62.5 150.5 Z" /><glyph glyph-name="" unicode="&#xe034;" d="M299 405 l85 0 l0 -298 l-85 0 l0 298 ZM128 107 l0 298 l85 0 l0 -298 l-85 0 Z" /><glyph glyph-name="" unicode="&#xe035;" d="M320 171 l0 170 l-43 0 l0 -170 l43 0 ZM235 171 l0 170 l-43 0 l0 -170 l43 0 ZM105.5 406.5 q62.5 62.5 150.5 62.5 q88 0 150.5 -62.5 q62.5 -62.5 62.5 -150.5 q0 -88 -62.5 -150.5 q-62.5 -62.5 -150.5 -62.5 q-88 0 -150.5 62.5 q-62.5 62.5 -62.5 150.5 q0 88 62.5 150.5 Z" /><glyph glyph-name="" unicode="&#xe036;" d="M277 171 l0 170 l43 0 l0 -170 l-43 0 ZM135.5 135.5 q50.5 -50.5 120.5 -50.5 q70 0 120.5 50.5 q50.5 50.5 50.5 120.5 q0 70 -50.5 120.5 q-50.5 50.5 -120.5 50.5 q-70 0 -120.5 -50.5 q-50.5 -50.5 -50.5 -120.5 q0 -70 50.5 -120.5 ZM105.5 406.5 q62.5 62.5 150.5 62.5 q88 0 150.5 -62.5 q62.5 -62.5 62.5 -150.5 q0 -88 -62.5 -150.5 q-62.5 -62.5 -150.5 -62.5 q-88 0 -150.5 62.5 q-62.5 62.5 -62.5 150.5 q0 88 62.5 150.5 ZM192 171 l0 170 l43 0 l0 -170 l-43 0 Z" /><glyph glyph-name="" unicode="&#xe037;" d="M171 405 l234 -149 l-234 -149 l0 298 Z" /><glyph glyph-name="" unicode="&#xe038;" d="M213 160 l128 96 l-128 96 l0 -192 ZM105.5 406.5 q62.5 62.5 150.5 62.5 q88 0 150.5 -62.5 q62.5 -62.5 62.5 -150.5 q0 -88 -62.5 -150.5 q-62.5 -62.5 -150.5 -62.5 q-88 0 -150.5 62.5 q-62.5 62.5 -62.5 150.5 q0 88 62.5 150.5 Z" /><glyph glyph-name="" unicode="&#xe039;" d="M135.5 135.5 q50.5 -50.5 120.5 -50.5 q70 0 120.5 50.5 q50.5 50.5 50.5 120.5 q0 70 -50.5 120.5 q-50.5 50.5 -120.5 50.5 q-70 0 -120.5 -50.5 q-50.5 -50.5 -50.5 -120.5 q0 -70 50.5 -120.5 ZM105.5 406.5 q62.5 62.5 150.5 62.5 q88 0 150.5 -62.5 q62.5 -62.5 62.5 -150.5 q0 -88 -62.5 -150.5 q-62.5 -62.5 -150.5 -62.5 q-88 0 -150.5 62.5 q-62.5 62.5 -62.5 150.5 q0 88 62.5 150.5 ZM213 160 l0 192 l128 -96 l-128 -96 Z" /><glyph glyph-name="" unicode="&#xe03b;" d="M43 171 l0 42 l170 0 l0 -42 l-170 0 ZM384 213 l85 0 l0 -42 l-85 0 l0 -86 l-43 0 l0 86 l-85 0 l0 42 l85 0 l0 86 l43 0 l0 -86 ZM299 384 l0 -43 l-256 0 l0 43 l256 0 ZM299 299 l0 -43 l-256 0 l0 43 l256 0 Z" /><glyph glyph-name="" unicode="&#xe03c;" d="M405 277 l0 43 l-85 0 l0 85 l-43 0 l0 -85 l-85 0 l0 -43 l85 0 l0 -85 l43 0 l0 85 l85 0 ZM427 469 q17 0 29.5 -12.5 q12.5 -12.5 12.5 -29.5 l0 -256 q0 -17 -12.5 -30 q-12.5 -13 -29.5 -13 l-256 0 q-17 0 -30 13 q-13 13 -13 30 l0 256 q0 17 13 29.5 q13 12.5 30 12.5 l256 0 ZM85 384 l0 -299 l299 0 l0 -42 l-299 0 q-17 0 -29.5 12.5 q-12.5 12.5 -12.5 29.5 l0 299 l42 0 Z" /><glyph glyph-name="" unicode="&#xe03d;" d="M363 384 l106 0 l0 -43 l-64 0 l0 -192 q0 -26 -19 -45 q-19 -19 -45 -19 q-26 0 -45 19 q-19 19 -19 45 q0 26 19 45 q19 19 45 19 q8 0 22 -4 l0 175 ZM64 171 l0 42 l171 0 l0 -42 l-171 0 ZM320 299 l0 -43 l-256 0 l0 43 l256 0 ZM320 384 l0 -43 l-256 0 l0 43 l256 0 Z" /><glyph glyph-name="" unicode="&#xe03e;" d="M427 256 l0 85 l-342 0 l0 -85 l256 0 l0 43 l43 0 l0 -43 l43 0 ZM104 104 q19 -19 45 -19 q26 0 45 19 q19 19 19 45 q0 26 -19 45 q-19 19 -45 19 q-26 0 -45 -19 q-19 -19 -19 -45 q0 -26 19 -45 ZM69 381 l270 110 l14 -36 l-176 -71 l250 0 q18 0 30 -12.5 q12 -12.5 12 -30.5 l0 -256 q0 -18 -12 -30 q-12 -12 -30 -12 l-342 0 q-18 0 -30 12 q-12 12 -12 30 l0 256 q0 30 26 40 Z" /><glyph glyph-name="" unicode="&#xe03f;" d="M267 149 l0 16 q0 22 -33 35 q-33 13 -63 13 q-30 0 -63 -13 q-33 -13 -33 -35 l0 -16 l192 0 ZM204.5 332.5 q-14.5 14.5 -33.5 14.5 q-19 0 -33.5 -14.5 q-14.5 -14.5 -14.5 -33.5 q0 -19 14.5 -33.5 q14.5 -14.5 33.5 -14.5 q19 0 33.5 14.5 q14.5 14.5 14.5 33.5 q0 19 -14.5 33.5 ZM299 405 q9 0 15 -6 q6 -6 6 -15 l0 -256 q0 -9 -6 -15 q-6 -6 -15 -6 l-256 0 q-9 0 -15.5 6 q-6.5 6 -6.5 15 l0 256 q0 9 6.5 15 q6.5 6 15.5 6 l256 0 ZM363 107 l0 298 l42 0 l0 -298 l-42 0 ZM448 405 l43 0 l0 -298 l-43 0 l0 298 Z" /><glyph glyph-name="" unicode="&#xe040;" d="M363 149 l0 86 l42 0 l0 -128 l-256 0 l0 -64 l-85 85 l85 85 l0 -64 l214 0 ZM149 363 l0 -86 l-42 0 l0 128 l256 0 l0 64 l85 -85 l-85 -85 l0 64 l-214 0 Z" /><glyph glyph-name="" unicode="&#xe041;" d="M277 192 l-32 0 l0 85 l-32 0 l0 22 l43 21 l21 0 l0 -128 ZM363 149 l0 86 l42 0 l0 -128 l-256 0 l0 -64 l-85 85 l85 85 l0 -64 l214 0 ZM149 363 l0 -86 l-42 0 l0 128 l256 0 l0 64 l85 -85 l-85 -85 l0 64 l-214 0 Z" /><glyph glyph-name="" unicode="&#xe042;" d="M256 405 q71 0 121 -50 q50 -50 50 -120 q0 -71 -50.5 -121 q-50.5 -50 -120.5 -50 q-70 0 -120.5 50 q-50.5 50 -50.5 121 l43 0 q0 -53 37.5 -90.5 q37.5 -37.5 90.5 -37.5 q53 0 90.5 37.5 q37.5 37.5 37.5 90.5 q0 53 -37.5 90.5 q-37.5 37.5 -90.5 37.5 l0 -86 l-107 107 l107 107 l0 -86 Z" /><glyph glyph-name="" unicode="&#xe043;" d="M316 226 l67 -67 l44 44 l0 -118 l-118 0 l44 44 l-67 67 l30 30 ZM309 427 l118 0 l0 -118 l-44 44 l-268 -268 l-30 30 l268 268 l-44 44 ZM226 316 l-30 -30 l-111 111 l30 30 l111 -111 Z" /><glyph glyph-name="" unicode="&#xe044;" d="M341 384 l43 0 l0 -256 l-43 0 l0 256 ZM128 128 l0 256 l181 -128 l-181 -128 Z" /><glyph glyph-name="" unicode="&#xe045;" d="M203 256 l181 128 l0 -256 l-181 128 ZM128 384 l43 0 l0 -256 l-43 0 l0 256 Z" /><glyph glyph-name="" unicode="&#xe046;" d="M192 277 l0 43 l128 0 l0 -38 l-77 -90 l77 0 l0 -43 l-128 0 l0 39 l77 89 l-77 0 ZM150.5 129 q43.5 -44 105.5 -44 q62 0 105.5 44 q43.5 44 43.5 106 q0 62 -43.5 105.5 q-43.5 43.5 -105.5 43.5 q-62 0 -105.5 -43.5 q-43.5 -43.5 -43.5 -105.5 q0 -62 43.5 -106 ZM120 370.5 q56 56.5 136 56.5 q80 0 136 -56.5 q56 -56.5 56 -135.5 q0 -79 -56 -135.5 q-56 -56.5 -136 -56.5 q-80 0 -136 56.5 q-56 56.5 -56 135.5 q0 79 56 135.5 ZM469 390 l-27 -33 l-98 83 l27 32 l98 -82 ZM168 440 l-98 -82 l-27 32 l98 82 l27 -32 Z" /><glyph glyph-name="" unicode="&#xe047;" d="M128 384 l256 0 l0 -256 l-256 0 l0 256 Z" /><glyph glyph-name="" unicode="&#xe048;" d="M427 213 l0 43 l-214 0 l0 -43 l214 0 ZM427 128 l0 43 l-86 0 l0 -43 l86 0 ZM299 128 l0 43 l-214 0 l0 -43 l214 0 ZM85 256 l0 -43 l86 0 l0 43 l-86 0 ZM427 427 q17 0 29.5 -13 q12.5 -13 12.5 -30 l0 -256 q0 -17 -12.5 -30 q-12.5 -13 -29.5 -13 l-342 0 q-17 0 -29.5 13 q-12.5 13 -12.5 30 l0 256 q0 17 12.5 30 q12.5 13 29.5 13 l342 0 Z" /><glyph glyph-name="" unicode="&#xe049;" d="M226 286 q13 13 30 13 q17 0 30 -13 q13 -13 13 -30 q0 -17 -13 -30 q-13 -13 -30 -13 q-17 0 -30 13 q-13 13 -13 30 q0 17 13 30 ZM377 135 q50 50 50 121 l0 1 q0 29 -14.5 64.5 q-14.5 35.5 -35.5 55.5 l-31 -31 q38 -38 38 -90 q0 -54 -37 -91 l30 -30 ZM196 196 q25 -25 60 -25 q35 0 60 25 q25 25 25 60 q0 35 -25 60 q-25 25 -60 25 q-35 0 -60 -25 q-25 -25 -25 -60 q0 -35 25 -60 ZM166 166 q-38 38 -38 90 q0 54 37 91 l-30 30 q-50 -50 -50 -121 l0 -1 q0 -29 14.5 -64.5 q14.5 -35.5 35.5 -55.5 l31 31 ZM427 427 q17 0 29.5 -13 q12.5 -13 12.5 -30 l0 -256 q0 -17 -12.5 -30 q-12.5 -13 -29.5 -13 l-342 0 q-17 0 -29.5 13 q-12.5 13 -12.5 30 l0 256 q0 17 12.5 30 q12.5 13 29.5 13 l342 0 Z" /><glyph glyph-name="" unicode="&#xe04a;" d="M256 203 l128 96 l-128 96 l0 -192 ZM427 469 q17 0 29.5 -12.5 q12.5 -12.5 12.5 -29.5 l0 -256 q0 -17 -12.5 -30 q-12.5 -13 -29.5 -13 l-256 0 q-17 0 -30 13 q-13 13 -13 30 l0 256 q0 17 13 29.5 q13 12.5 30 12.5 l256 0 ZM85 384 l0 -299 l299 0 l0 -42 l-299 0 q-17 0 -29.5 12.5 q-12.5 12.5 -12.5 29.5 l0 299 l42 0 Z" /><glyph glyph-name="" unicode="&#xe04b;" d="M363 288 l85 85 l0 -234 l-85 85 l0 -75 q0 -9 -6.5 -15 q-6.5 -6 -15.5 -6 l-256 0 q-9 0 -15 6 q-6 6 -6 15 l0 214 q0 9 6 15 q6 6 15 6 l256 0 q9 0 15.5 -6 q6.5 -6 6.5 -15 l0 -75 Z" /><glyph glyph-name="" unicode="&#xe04c;" d="M70 469 l378 -378 l-27 -27 l-68 68 q-6 -4 -12 -4 l-256 0 q-9 0 -15 6 q-6 6 -6 15 l0 214 q0 9 6 15 q6 6 15 6 l16 0 l-58 58 l27 27 ZM448 373 l0 -228 l-239 239 l132 0 q9 0 15.5 -6 q6.5 -6 6.5 -15 l0 -75 l85 85 Z" /><glyph glyph-name="" unicode="&#xe04d;" d="M107 320 l85 0 l107 107 l0 -342 l-107 107 l-85 0 l0 128 ZM395 256 q0 -59 -54 -86 l0 172 q22 -11 38 -36.5 q16 -25.5 16 -49.5 Z" /><glyph glyph-name="" unicode="&#xe04e;" d="M149 320 l86 0 l106 107 l0 -342 l-106 107 l-86 0 l0 128 Z" /><glyph glyph-name="" unicode="&#xe04f;" d="M256 427 l0 -90 l-45 45 l45 45 ZM91 448 l357 -357 l-27 -27 l-44 44 q-33 -28 -78 -39 l0 44 q25 7 48 25 l-91 91 l0 -144 l-107 107 l-85 0 l0 128 l101 0 l-101 101 l27 27 ZM405 256 q0 51 -29.5 90 q-29.5 39 -76.5 53 l0 44 q65 -14 107 -66.5 q42 -52.5 42 -120.5 q0 -47 -22 -89 l-32 33 q11 27 11 56 ZM352 256 q0 -9 -1 -13 l-52 52 l0 47 q22 -11 37.5 -36 q15.5 -25 15.5 -50 Z" /><glyph glyph-name="" unicode="&#xe050;" d="M299 443 q65 -14 107 -66.5 q42 -52.5 42 -120.5 q0 -68 -42 -120.5 q-42 -52.5 -107 -66.5 l0 44 q47 14 76.5 53 q29.5 39 29.5 90 q0 51 -29.5 90 q-29.5 39 -76.5 53 l0 44 ZM352 256 q0 -60 -53 -86 l0 172 q22 -11 37.5 -36 q15.5 -25 15.5 -50 ZM64 320 l85 0 l107 107 l0 -342 l-107 107 l-85 0 l0 128 Z" /><glyph glyph-name="" unicode="&#xe051;" d="M427 128 l0 192 l-86 0 l0 -192 l86 0 ZM320 235 l0 85 l-235 0 l0 -85 l235 0 ZM320 128 l0 85 l-235 0 l0 -85 l235 0 ZM427 427 q17 0 29.5 -13 q12.5 -13 12.5 -30 l0 -256 q0 -17 -12.5 -30 q-12.5 -13 -29.5 -13 l-342 0 q-17 0 -29.5 13 q-12.5 13 -12.5 30 l0 256 q0 17 12.5 30 q12.5 13 29.5 13 l342 0 Z" /><glyph glyph-name="" unicode="&#xe052;" d="M309 224 l0 64 l43 0 l0 -64 l-43 0 ZM277 320 l0 -128 l86 0 q9 0 15 6 q6 6 6 15 l0 86 q0 9 -6 15 q-6 6 -15 6 l-86 0 ZM235 192 l0 128 l-32 0 l0 -53 l-43 0 l0 53 l-32 0 l0 -128 l32 0 l0 43 l43 0 l0 -43 l32 0 ZM405 448 q17 0 30 -13 q13 -13 13 -30 l0 -298 q0 -17 -13 -30 q-13 -13 -30 -13 l-298 0 q-18 0 -30.5 12.5 q-12.5 12.5 -12.5 30.5 l0 298 q0 18 12.5 30.5 q12.5 12.5 30.5 12.5 l298 0 Z" /><glyph glyph-name="" unicode="&#xe053;" d="M336 168 l130 0 l0 -34 l-182 0 l0 27 l126 183 l-125 0 l0 34 l177 0 l0 -27 l-126 -183 ZM106 221 l83 0 l-42 111 l-41 -111 ZM130 378 l35 0 l96 -244 l-39 0 l-20 52 l-109 0 l-20 -52 l-39 0 l96 244 ZM219 99 l99 0 l-50 -50 l-49 50 ZM319 413 l-101 0 l50 50 l51 -50 Z" /><glyph glyph-name="" unicode="&#xe055;" d="M448 448 q17 0 30 -13 q13 -13 13 -30 l0 -256 q0 -17 -13 -29.5 q-13 -12.5 -30 -12.5 l-85 0 l0 42 l85 0 l0 256 l-384 0 l0 -256 l85 0 l0 -42 l-85 0 q-17 0 -30 12.5 q-13 12.5 -13 29.5 l0 256 q0 17 13 30 q13 13 30 13 l384 0 ZM128 43 l128 128 l128 -128 l-256 0 Z" /><glyph glyph-name="" unicode="&#xe056;" d="M282 188 q0 -7 10 -7 q5 0 7 2 l4 5 q2 4 2 6 l0 43 q-2 4 -2 6 q0 2 -4.5 4.5 q-4.5 2.5 -6.5 2.5 q-3 0 -6 -3 l-4 -4 q-3 -4 -3 -6 l0 -43 q3 -4 3 -6 ZM322 209 q0 -13 -2 -17 l-6 -13 q-7 -6 -11 -6 q-2 0 -6.5 -1 q-4.5 -1 -6.5 -1 q-9 0 -13 2 q-2 1 -5 3 q-3 2 -5 3 q-9 5 -9 30 l0 15 q0 13 2 17 l7 13 q6 6 10 6 q2 0 6.5 1 q4.5 1 6.5 1 q9 0 13 -2 q2 -1 5.5 -3 q3.5 -2 5.5 -3 q2 -1 6 -13 q2 -6 2 -17 l0 -15 ZM233 171 l-20 0 l0 70 l-21 -6 l0 15 l38 12 l3 0 l0 -91 ZM85 235 q0 70 50 120 q50 50 121 50 l0 86 l107 -107 l-107 -107 l0 86 q-52 0 -90 -37.5 q-38 -37.5 -38 -90.5 q0 -53 38 -90.5 q38 -37.5 90 -37.5 q52 0 90 37.5 q38 37.5 38 90.5 l43 0 q0 -71 -50.5 -121 q-50.5 -50 -120.5 -50 q-70 0 -120.5 50 q-50.5 50 -50.5 121 Z" /><glyph glyph-name="" unicode="&#xe057;" d="M85 235 q0 70 50 120 q50 50 121 50 l0 86 l107 -107 l-107 -107 l0 86 q-52 0 -90 -37.5 q-38 -37.5 -38 -90.5 q0 -53 38 -90.5 q38 -37.5 90 -37.5 q52 0 90 37.5 q38 37.5 38 90.5 l43 0 q0 -71 -50.5 -121 q-50.5 -50 -120.5 -50 q-70 0 -120.5 50 q-50.5 50 -50.5 121 ZM284 188 q0 -7 10 -7 q5 0 7 2 l4 5 q2 4 2 6 l0 43 q-2 4 -2 6 q0 2 -4.5 4.5 q-4.5 2.5 -6.5 2.5 q-3 0 -6 -3 l-4 -4 q-2 -4 -2 -6 l0 -43 q2 -4 2 -6 ZM326 209 q0 -13 -2 -17 l-6 -13 q-7 -6 -11 -6 q-2 0 -6.5 -1 q-4.5 -1 -6.5 -1 q-7 0 -23 8 q-2 1 -6 13 q-3 9 -3 17 l0 15 q0 11 3 17 l6 13 q7 6 11 6 q2 0 6 1 q4 1 6 1 q9 0 13 -2 q2 -1 5.5 -3 q3.5 -2 5.5 -3 q2 -1 6 -13 q2 -6 2 -17 l0 -15 ZM213 224 q15 0 15 13 l0 4 q-2 2 -2 4 q0 2 -4 2 l-11 0 q-2 -2 -4 -2 q-2 0 -2 -4 l0 -4 l-22 0 q0 8 5.5 15.5 q5.5 7.5 12.5 7.5 q1 0 5 1 q4 1 5 1 q12 0 24 -6 q8 -4 8 -19 l0 -7 q-2 -4 -2 -6 q0 -4 -4 -4 q-2 0 -7 -5 q9 -5 11 -8 q4 -8 4 -13 q0 -9 -2 -11 q-1 -1 -3 -4 q-2 -3 -3 -4 q-4 -4 -11 -4 q-2 0 -6.5 -1 q-4.5 -1 -6.5 -1 q-8 0 -10 2 q-1 1 -5 2 q-4 1 -6 2 q-9 5 -9 21 l18 0 l0 -4 q2 -2 2 -4 q0 -2 4 -2 l11 0 q2 2 4 2 q2 0 2 4 l0 11 q-2 2 -2 4 q0 2 -4 2 l-13 0 l0 15 l8 0 Z" /><glyph glyph-name="" unicode="&#xe058;" d="M250 222 q-7 -3 -7 -4 l-2 -3 l-13 0 l5 47 l51 0 l0 -15 l-37 0 l-2 -19 q2 0 2 2 q0 1 1.5 1.5 q1.5 0.5 1.5 1.5 l4 0 l4 0 q8 0 11 -3 q1 -1 4 -3 q3 -2 4 -3 q9 -9 9 -23 q0 -9 -2 -11 q-1 -1 -3 -5 q-2 -4 -4 -6 q-8 -8 -23 -8 q-9 0 -11 2 q-1 1 -4.5 2 q-3.5 1 -5.5 2 q-9 5 -9 19 l17 0 q0 -10 13 -10 q4 0 6 2 l5 4 q2 4 2 6 l0 13 l-2 4 l-5 5 q-4 2 -6 2 l-4 0 ZM85 235 q0 70 50 120 q50 50 121 50 l0 86 l107 -107 l-107 -107 l0 86 q-52 0 -90 -37.5 q-38 -37.5 -38 -90.5 q0 -53 38 -90.5 q38 -37.5 90 -37.5 q52 0 90 37.5 q38 37.5 38 90.5 l43 0 q0 -71 -50.5 -121 q-50.5 -50 -120.5 -50 q-70 0 -120.5 50 q-50.5 50 -50.5 121 Z" /><glyph glyph-name="" unicode="&#xe059;" d="M282 188 q0 -7 10 -7 q5 0 7 2 l4 5 q2 4 2 6 l0 43 q-2 4 -2 6 q0 2 -4.5 4.5 q-4.5 2.5 -6.5 2.5 q-3 0 -6 -3 l-4 -4 q-3 -4 -3 -6 l0 -43 q3 -4 3 -6 ZM324 209 q0 -13 -2 -17 l-6 -13 q-7 -6 -11 -6 q-2 0 -6.5 -1 q-4.5 -1 -6.5 -1 q-9 0 -13 2 q-2 1 -5 3 q-3 2 -5 3 q-9 5 -9 30 l0 15 q0 13 2 17 l7 13 q6 6 10 6 q2 0 6.5 1 q4.5 1 6.5 1 q9 0 13 -2 q2 -1 5.5 -3 q3.5 -2 5.5 -3 q2 -1 6 -13 q2 -6 2 -17 l0 -15 ZM233 171 l-20 0 l0 70 l-21 -6 l0 15 l38 12 l3 0 l0 -91 ZM256 405 q71 0 121 -50 q50 -50 50 -120 q0 -71 -50.5 -121 q-50.5 -50 -120.5 -50 q-70 0 -120.5 50 q-50.5 50 -50.5 121 l43 0 q0 -53 38 -90.5 q38 -37.5 90 -37.5 q52 0 90 37.5 q38 37.5 38 90.5 q0 53 -38 90.5 q-38 37.5 -90 37.5 l0 -86 l-107 107 l107 107 l0 -86 Z" /><glyph glyph-name="" unicode="&#xe05a;" d="M286 188 q0 -7 11 -7 q4 0 6 2 l4 5 q2 4 2 6 l0 43 q0 1 -1 3 q-1 2 -1 3 q0 2 -4 4.5 q-4 2.5 -6 2.5 q-4 0 -7 -3 l-4 -4 q-2 -4 -2 -6 l0 -43 q2 -4 2 -6 ZM326 209 q0 -13 -2 -17 l-6 -13 q-7 -6 -11 -6 q-2 0 -6.5 -1 q-4.5 -1 -6.5 -1 q-7 0 -23 8 q-2 1 -6 13 q-3 9 -3 17 l0 15 q0 11 3 17 l6 13 q7 6 11 6 q2 0 6 1 q4 1 6 1 q9 0 13 -2 q2 -1 5.5 -3 q3.5 -2 5.5 -3 q2 -1 6 -13 q2 -6 2 -17 l0 -15 ZM213 224 q15 0 15 13 l0 4 q-2 2 -2 4 q0 2 -4 2 l-11 0 q-2 -2 -4 -2 q-2 0 -2 -4 l0 -4 l-22 0 q0 8 5.5 15.5 q5.5 7.5 12.5 7.5 q1 0 5 1 q4 1 5 1 q12 0 24 -6 q8 -4 8 -19 l0 -7 q-2 -4 -2 -6 q0 -4 -4 -4 q-2 0 -7 -5 q9 -5 11 -8 q4 -8 4 -13 q0 -9 -2 -11 q-1 -1 -3 -4 q-2 -3 -3 -4 q-4 -4 -11 -4 q-2 0 -6.5 -1 q-4.5 -1 -6.5 -1 q-8 0 -10 2 q-1 1 -5 2 q-4 1 -6 2 q-9 5 -9 21 l18 0 l0 -4 q2 -2 2 -4 q0 -2 4 -2 l11 0 q2 2 4 2 q2 0 2 4 l0 11 q-2 2 -2 4 q0 2 -4 2 l-13 0 l0 15 l8 0 ZM256 405 q71 0 121 -50 q50 -50 50 -120 q0 -71 -50.5 -121 q-50.5 -50 -120.5 -50 q-70 0 -120.5 50 q-50.5 50 -50.5 121 l43 0 q0 -53 38 -90.5 q38 -37.5 90 -37.5 q52 0 90 37.5 q38 37.5 38 90.5 q0 53 -38 90.5 q-38 37.5 -90 37.5 l0 -86 l-107 107 l107 107 l0 -86 Z" /><glyph glyph-name="" unicode="&#xe05b;" d="M252 222 q-7 -3 -7 -4 l-2 -3 l-15 0 l5 47 l51 0 l0 -15 l-37 0 l-2 -19 q2 0 2 2 q0 1 1.5 1.5 q1.5 0.5 1.5 1.5 l4 0 l4 0 q8 0 11 -3 q1 -1 4 -3 q3 -2 4 -3 q9 -9 9 -23 q0 -9 -2 -11 q-1 -1 -3 -5 q-2 -4 -4 -6 q-2 -2 -4.5 -3.5 q-2.5 -1.5 -3.5 -2.5 q-2 -2 -13 -2 q-9 0 -11 2 q-1 1 -4.5 2 q-3.5 1 -5.5 2 q-9 5 -9 19 l17 0 q0 -10 13 -10 q4 0 6 2 l5 4 q2 4 2 6 l0 13 l-2 4 l-5 5 q-4 2 -6 2 l-4 0 ZM256 405 q71 0 121 -50 q50 -50 50 -120 q0 -71 -50.5 -121 q-50.5 -50 -120.5 -50 q-70 0 -120.5 50 q-50.5 50 -50.5 121 l43 0 q0 -53 38 -90.5 q38 -37.5 90 -37.5 q52 0 90 37.5 q38 37.5 38 90.5 q0 53 -38 90.5 q-38 37.5 -90 37.5 l0 -86 l-107 107 l107 107 l0 -86 Z" /><glyph glyph-name="" unicode="&#xe05c;" d="M341 299 l0 -43 l-64 0 l0 -64 l-42 0 l0 64 l-64 0 l0 43 l64 0 l0 64 l42 0 l0 -64 l64 0 ZM448 149 l0 256 l-384 0 l0 -256 l384 0 ZM448 448 q18 0 30.5 -12.5 q12.5 -12.5 12.5 -30.5 l-1 -256 q0 -17 -12.5 -29.5 q-12.5 -12.5 -29.5 -12.5 l-107 0 l0 -43 l-170 0 l0 43 l-107 0 q-18 0 -30.5 12 q-12.5 12 -12.5 30 l0 256 q0 18 12.5 30.5 q12.5 12.5 30.5 12.5 l384 0 Z" /><glyph glyph-name="" unicode="&#xe05d;" d="M448 267 l0 21 q0 14 -9 23 q-9 9 -23 9 l-75 0 l0 -128 l32 0 l0 43 l25 0 l18 -43 l32 0 l-19 45 q19 9 19 30 ZM269 192 l38 128 l-32 0 l-22 -73 l-21 73 l-32 0 l37 -128 l32 0 ZM171 224 l0 64 q0 14 -9.5 23 q-9.5 9 -22.5 9 l-75 0 l0 -128 l75 0 q13 0 22.5 9 q9.5 9 9.5 23 ZM448 448 q18 0 30.5 -12.5 q12.5 -12.5 12.5 -30.5 l0 -298 q0 -18 -12.5 -30.5 q-12.5 -12.5 -30.5 -12.5 l-384 0 q-18 0 -30.5 12.5 q-12.5 12.5 -12.5 30.5 l0 298 q0 18 12.5 30.5 q12.5 12.5 30.5 12.5 l384 0 ZM96 288 l43 0 l0 -64 l-43 0 l0 64 ZM373 288 l43 0 l0 -21 l-43 0 l0 21 Z" /><glyph glyph-name="" unicode="&#xe05e;" d="M437 213 l0 107 l-26 0 l0 -96 l-24 0 l0 75 l-27 0 l0 -75 l-24 0 l0 96 l-27 0 l0 -107 q0 -9 6.5 -15 q6.5 -6 15.5 -6 l85 0 q9 0 15 6 q6 6 6 15 ZM288 293 l0 27 l-85 0 l0 -128 l85 0 l0 27 l-53 0 l0 23 l53 0 l0 27 l-53 0 l0 24 l53 0 ZM181 192 l0 128 l-26 0 l0 -75 l-54 75 l-26 0 l0 -128 l26 0 l0 75 l55 -75 l25 0 ZM427 427 q18 0 30 -12.5 q12 -12.5 12 -30.5 l0 -256 q0 -18 -12 -30.5 q-12 -12.5 -30 -12.5 l-342 0 q-18 0 -30 12.5 q-12 12.5 -12 30.5 l0 256 q0 18 12 30.5 q12 12.5 30 12.5 l342 0 Z" /><glyph glyph-name="" unicode="&#xe05f;" d="M299 213 l106 -64 l-106 -64 l0 128 ZM85 213 l171 0 l0 -42 l-171 0 l0 42 ZM85 384 l256 0 l0 -43 l-256 0 l0 43 ZM85 299 l256 0 l0 -43 l-256 0 l0 43 Z" /><glyph glyph-name="" unicode="&#xe060;" d="M224 192 l-48 64 l-37 -48 l-27 32 l-37 -48 l149 0 ZM256 320 l0 -128 q0 -17 -13 -30 q-13 -13 -30 -13 l-128 0 q-17 0 -29.5 13 q-12.5 13 -12.5 30 l0 128 q0 17 12.5 30 q12.5 13 29.5 13 l128 0 q17 0 30 -13 q13 -13 13 -30 ZM299 149 l0 43 l170 0 l0 -43 l-170 0 ZM469 363 l0 -43 l-170 0 l0 43 l170 0 ZM469 235 l-170 0 l0 42 l170 0 l0 -42 Z" /><glyph glyph-name="" unicode="&#xe061;" d="M135.5 135.5 q-50.5 50.5 -50.5 120.5 q0 70 50.5 120.5 q50.5 50.5 120.5 50.5 q70 0 120.5 -50.5 q50.5 -50.5 50.5 -120.5 q0 -70 -50.5 -120.5 q-50.5 -50.5 -120.5 -50.5 q-70 0 -120.5 50.5 Z" /><glyph glyph-name="" unicode="&#xe062;" d="M363 421 q56 -14 92 -60 q36 -46 36 -105 q0 -59 -36 -105 q-36 -46 -92 -60 l0 44 q35 13 60 48.5 q25 35.5 25 72.5 q0 37 -25 72.5 q-25 35.5 -60 48.5 l0 44 ZM71.5 135.5 q-50.5 50.5 -50.5 120.5 q0 70 50.5 120.5 q50.5 50.5 120.5 50.5 q70 0 120.5 -50.5 q50.5 -50.5 50.5 -120.5 q0 -70 -50.5 -120.5 q-50.5 -50.5 -120.5 -50.5 q-70 0 -120.5 50.5 Z" /><glyph glyph-name="" unicode="&#xe063;" d="M190 147 q-19 19 -19 45 q0 26 19 45 q19 19 45 19 q7 0 21 -4 l0 132 l107 0 l0 -43 l-64 0 l0 -150 q0 -26 -19 -44.5 q-19 -18.5 -45 -18.5 q-26 0 -45 19 ZM448 107 l0 298 l-384 0 l0 -298 l384 0 ZM448 448 q17 0 30 -13 q13 -13 13 -30 l0 -298 q0 -17 -13 -30 q-13 -13 -30 -13 l-384 0 q-17 0 -30 13 q-13 13 -13 30 l0 298 q0 17 13 30 q13 13 30 13 l384 0 Z" /><glyph glyph-name="" unicode="&#xe064;" d="M341 171 l-128 69 l0 -139 l128 70 ZM469 256 l0 -171 q0 -17 -12.5 -29.5 q-12.5 -12.5 -29.5 -12.5 l-342 0 q-17 0 -29.5 12.5 q-12.5 12.5 -12.5 29.5 l0 171 q0 17 12.5 30 q12.5 13 29.5 13 l342 0 q17 0 29.5 -13 q12.5 -13 12.5 -30 ZM384 469 l0 -42 l-256 0 l0 42 l256 0 ZM427 341 l-342 0 l0 43 l342 0 l0 -43 Z" /><glyph glyph-name="" unicode="&#xe065;" d="M459 267 l32 -32 l-149 -150 l-97 96 l32 32 l65 -64 l117 118 ZM43 171 l0 42 l170 0 l0 -42 l-170 0 ZM299 384 l0 -43 l-256 0 l0 43 l256 0 ZM299 299 l0 -43 l-256 0 l0 43 l256 0 Z" /><glyph glyph-name="" unicode="&#xe066;" d="M512 128 l-96 -96 l-32 32 l64 64 l-64 64 l32 32 l96 -96 ZM277 299 l64 0 l0 -43 l-64 0 l0 -64 l-42 0 l0 64 l-64 0 l0 43 l64 0 l0 64 l42 0 l0 -64 ZM448 448 q18 0 30.5 -12.5 q12.5 -12.5 12.5 -30.5 l0 -170 l-43 0 l0 170 l-384 0 l0 -256 l320 0 l0 -42 l-43 0 l0 -43 l-170 0 l0 43 l-107 0 q-18 0 -30.5 12 q-12.5 12 -12.5 30 l0 256 q0 18 12.5 30.5 q12.5 12.5 30.5 12.5 l384 0 Z" /><glyph glyph-name="" unicode="&#xe067;" d="M341 299 l0 -43 l-170 0 l0 43 l170 0 ZM448 149 l0 256 l-384 0 l0 -256 l384 0 ZM448 448 q18 0 30.5 -12.5 q12.5 -12.5 12.5 -30.5 l-1 -256 q0 -17 -12.5 -29.5 q-12.5 -12.5 -29.5 -12.5 l-107 0 l0 -43 l-170 0 l0 43 l-107 0 q-18 0 -30.5 12 q-12.5 12 -12.5 30 l0 256 q0 18 12.5 30.5 q12.5 12.5 30.5 12.5 l384 0 Z" /><glyph glyph-name="" unicode="&#xe068;" d="M414 399 q55 -61 55 -143 q0 -82 -55 -143 q-55 -61 -136 -69 l0 43 q63 8 106 56.5 q43 48.5 43 112.5 q0 64 -43 112.5 q-43 48.5 -106 56.5 l0 43 q81 -8 136 -69 ZM121 91 l30 30 q36 -28 84 -34 l0 -43 q-27 3 -60.5 17 q-33.5 14 -53.5 30 ZM87 235 q5 -47 34 -83 l-30 -31 q-41 51 -47 114 l43 0 ZM121 361 q-28 -37 -34 -84 l-43 0 q3 27 17 60.5 q14 33.5 30 53.5 l30 -30 ZM235 425 q-48 -6 -84 -34 l-30 30 q51 41 114 47 l0 -43 ZM278 303 l63 -47 q-63 -47 -128 -96 l65 143 Z" /><glyph glyph-name="" unicode="&#xe069;" d="M405 128 l0 213 l-298 0 l0 -213 l298 0 ZM405 427 q18 0 30.5 -12.5 q12.5 -12.5 12.5 -30.5 l0 -256 q0 -17 -13 -30 q-13 -13 -30 -13 l-298 0 q-18 0 -30.5 12.5 q-12.5 12.5 -12.5 30.5 l0 256 q0 18 12.5 30.5 q12.5 12.5 30.5 12.5 l298 0 Z" /><glyph glyph-name="" unicode="&#xe06a;" d="M427 192 l0 128 l-27 0 l0 -75 l-53 75 l-27 0 l0 -128 l27 0 l0 75 l54 -75 l26 0 ZM267 192 l0 128 l-32 0 l0 -128 l32 0 ZM192 267 l0 21 q0 14 -9 23 q-9 9 -23 9 l-75 0 l0 -128 l32 0 l0 43 l43 0 q14 0 23 9.5 q9 9.5 9 22.5 ZM427 427 q18 0 30 -12.5 q12 -12.5 12 -30.5 l0 -256 q0 -18 -12 -30.5 q-12 -12.5 -30 -12.5 l-342 0 q-18 0 -30 12.5 q-12 12.5 -12 30.5 l0 256 q0 18 12 30.5 q12 12.5 30 12.5 l342 0 ZM117 288 l43 0 l0 -21 l-43 0 l0 21 Z" /><glyph glyph-name="" unicode="&#xe06b;" d="M448 107 l0 128 l-192 0 l0 -128 l192 0 ZM448 448 q17 0 30 -13 q13 -13 13 -30 l0 -298 q0 -17 -13 -30 q-13 -13 -30 -13 l-384 0 q-17 0 -30 13 q-13 13 -13 30 l0 298 q0 17 13 30 q13 13 30 13 l384 0 Z" /><glyph glyph-name="" unicode="&#xe06c;" d="M448 107 l0 64 l-384 0 l0 -64 l384 0 ZM448 448 q17 0 30 -13 q13 -13 13 -30 l0 -298 q0 -17 -13 -30 q-13 -13 -30 -13 l-384 0 q-17 0 -30 13 q-13 13 -13 30 l0 298 q0 17 13 30 q13 13 30 13 l384 0 Z" /><glyph glyph-name="" unicode="&#xe06d;" d="M256 363 l0 42 l-192 0 l0 -42 l192 0 ZM256 277 l0 43 l-192 0 l0 -43 l192 0 ZM448 448 q17 0 30 -13 q13 -13 13 -30 l0 -298 q0 -17 -13 -30 q-13 -13 -30 -13 l-384 0 q-17 0 -30 13 q-13 13 -13 30 l0 298 q0 17 13 30 q13 13 30 13 l384 0 Z" /><glyph glyph-name="" unicode="&#xe06e;" d="M256 256 l0 149 l-192 0 l0 -149 l192 0 ZM448 448 q17 0 30 -13 q13 -13 13 -30 l0 -298 q0 -17 -13 -30 q-13 -13 -30 -13 l-384 0 q-17 0 -30 13 q-13 13 -13 30 l0 298 q0 17 13 30 q13 13 30 13 l384 0 Z" /><glyph glyph-name="" unicode="&#xe06f;" d="M320 395 l0 -118 l117 0 l-117 118 ZM469 299 l0 -171 q0 -17 -12.5 -29.5 q-12.5 -12.5 -29.5 -12.5 l-342 -1 q-17 0 -29.5 13 q-12.5 13 -12.5 30 l0 256 q0 17 12.5 30 q12.5 13 29.5 13 l256 0 l128 -128 Z" /><glyph glyph-name="" unicode="&#xe070;" d="M299 235 l0 42 l-64 0 l0 64 l-43 0 l0 -64 l-64 0 l0 -42 l64 0 l0 -64 l43 0 l0 64 l64 0 ZM363 288 l85 85 l0 -234 l-85 85 l0 -75 q0 -9 -6.5 -15 q-6.5 -6 -15.5 -6 l-256 0 q-9 0 -15 6 q-6 6 -6 15 l0 214 q0 9 6 15 q6 6 15 6 l256 0 q9 0 15.5 -6 q6.5 -6 6.5 -15 l0 -75 Z" /><glyph glyph-name="" unicode="&#xe071;" d="M448 171 l0 234 l-384 0 l0 -234 l384 0 ZM448 448 q17 0 30 -13 q13 -13 13 -30 l0 -298 q0 -17 -13 -30 q-13 -13 -30 -13 l-384 0 q-17 0 -30 13 q-13 13 -13 30 l0 298 q0 17 13 30 q13 13 30 13 l384 0 Z" /><glyph glyph-name="" unicode="&#xe072;" d="M384 192 l-48 64 l48 64 l-37 0 l-38 -48 l0 48 l-32 0 l0 -128 l32 0 l0 48 l38 -48 l37 0 ZM256 224 l0 32 l-21 0 l0 64 l-32 0 l0 -64 l-32 0 l0 64 l-32 0 l0 -96 l64 0 l0 -32 l32 0 l0 32 l21 0 ZM405 448 q17 0 30 -13 q13 -13 13 -30 l0 -298 q0 -17 -13 -30 q-13 -13 -30 -13 l-298 0 q-17 0 -30 13 q-13 13 -13 30 l0 298 q0 17 13 30 q13 13 30 13 l298 0 Z" /><glyph glyph-name="" unicode="&#xe073;" d="M213 192 l107 107 l-17 17 l-90 -91 l-66 67 l54 0 l0 23 l-94 0 l0 -94 l23 0 l0 54 l83 -83 ZM363 288 l85 85 l0 -234 l-85 85 l0 -75 q0 -9 -6.5 -15 q-6.5 -6 -15.5 -6 l-256 0 q-9 0 -15 6 q-6 6 -6 15 l0 214 q0 9 6 15 q6 6 15 6 l256 0 q9 0 15.5 -6 q6.5 -6 6.5 -15 l0 -75 Z" /><glyph glyph-name="" unicode="&#xe074;" d="M211 211 q-19 19 -19 45 q0 26 19 45 q19 19 45 19 q26 0 45 -19 q19 -19 19 -45 q0 -26 -19 -45 q-19 -19 -45 -19 q-26 0 -45 19 ZM118 332 l38 -38 l-38 -38 l38 -38 l-38 -38 l-75 76 l75 76 ZM180 118 l38 38 l38 -38 l38 38 l38 -38 l-76 -75 l-76 75 ZM394 180 l-38 38 l38 38 l-38 38 l38 38 l75 -76 l-75 -76 ZM332 394 l-38 -38 l-38 38 l-38 -38 l-38 38 l76 75 l76 -75 Z" /><glyph glyph-name="" unicode="&#xe0af;" d="M384 192 l0 -43 l-43 0 l0 43 l43 0 ZM384 277 l0 -42 l-43 0 l0 42 l43 0 ZM427 107 l0 213 l-171 0 l0 -43 l43 0 l0 -42 l-43 0 l0 -43 l43 0 l0 -43 l-43 0 l0 -42 l171 0 ZM213 363 l0 42 l-42 0 l0 -42 l42 0 ZM213 277 l0 43 l-42 0 l0 -43 l42 0 ZM213 192 l0 43 l-42 0 l0 -43 l42 0 ZM213 107 l0 42 l-42 0 l0 -42 l42 0 ZM128 363 l0 42 l-43 0 l0 -42 l43 0 ZM128 277 l0 43 l-43 0 l0 -43 l43 0 ZM128 192 l0 43 l-43 0 l0 -43 l43 0 ZM128 107 l0 42 l-43 0 l0 -42 l43 0 ZM256 363 l213 0 l0 -299 l-426 0 l0 384 l213 0 l0 -85 Z" /><glyph glyph-name="" unicode="&#xe0b0;" d="M427 184 q9 0 15 -6 q6 -6 6 -15 l0 -74 q0 -25 -21 -25 q-149 0 -256 107 q-107 107 -107 256 q0 21 25 21 l74 0 q9 0 15 -6 q6 -6 6 -15 q0 -39 12 -75 q4 -13 -5 -22 l-41 -36 q46 -96 147 -145 l33 42 q6 6 15 6 q5 0 7 -1 q36 -12 75 -12 Z" /><glyph glyph-name="" unicode="&#xe0b1;" d="M256 320 q-52 0 -98 -15 l0 -66 q0 -15 -12 -20 q-32 -15 -57 -39 q-6 -6 -15 -6 q-9 0 -15 6 l-53 53 q-6 6 -6 15 q0 9 6 15 q105 100 250 100 q145 0 250 -100 q6 -6 6 -15 q0 -9 -6 -15 l-53 -53 q-6 -6 -15 -6 q-9 0 -15 6 q-22 21 -57 39 q-12 5 -12 19 l0 66 q-50 16 -98 16 Z" /><glyph glyph-name="" unicode="&#xe0b2;" d="M192 405 l213 0 l0 -213 l-42 0 l0 141 l-248 -248 l-30 30 l248 248 l-141 0 l0 42 Z" /><glyph glyph-name="" unicode="&#xe0b3;" d="M160 341 l96 96 l96 -96 l-75 0 l0 -136 l-128 -128 l-30 30 l116 115 l0 119 l-75 0 ZM363 77 l-73 72 l30 30 l73 -72 l-30 -30 Z" /><glyph glyph-name="" unicode="&#xe0b4;" d="M418 363 l30 -30 l-192 -192 l-149 149 l0 -98 l-43 0 l0 171 l171 0 l0 -43 l-98 0 l119 -119 l162 162 Z" /><glyph glyph-name="" unicode="&#xe0b5;" d="M427 397 l-248 -248 l141 0 l0 -42 l-213 0 l0 213 l42 0 l0 -141 l248 248 l30 -30 Z" /><glyph glyph-name="" unicode="&#xe0b6;" d="M213 427 l-49 -49 l113 -113 l0 -180 l-42 0 l0 162 l-101 101 l-49 -49 l0 128 l128 0 ZM299 427 l128 0 l0 -128 l-49 49 l-62 -62 l-30 30 l62 62 l-49 49 Z" /><glyph glyph-name="" unicode="&#xe0b7;" d="M384 341 l0 43 l-256 0 l0 -43 l256 0 ZM299 213 l0 43 l-171 0 l0 -43 l171 0 ZM128 320 l0 -43 l256 0 l0 43 l-256 0 ZM427 469 q17 0 29.5 -12.5 q12.5 -12.5 12.5 -29.5 l0 -256 q0 -17 -12.5 -30 q-12.5 -13 -29.5 -13 l-299 0 l-85 -85 l0 384 q0 17 12.5 29.5 q12.5 12.5 29.5 12.5 l342 0 Z" /><glyph glyph-name="" unicode="&#xe0b8;" d="M149 363 l299 0 l0 -43 l-299 0 l0 43 ZM64 149 l0 43 l299 0 l0 -43 l-299 0 ZM107 235 l0 42 l298 0 l0 -42 l-298 0 Z" /><glyph glyph-name="" unicode="&#xe0b9;" d="M384 341 l0 43 l-256 0 l0 -43 l256 0 ZM384 277 l0 43 l-256 0 l0 -43 l256 0 ZM384 213 l0 43 l-256 0 l0 -43 l256 0 ZM469 427 l0 -384 l-85 85 l-299 0 q-17 0 -29.5 13 q-12.5 13 -12.5 30 l0 256 q0 17 12.5 29.5 q12.5 12.5 29.5 12.5 l342 0 q17 0 29.5 -12.5 q12.5 -12.5 12.5 -29.5 Z" /><glyph glyph-name="" unicode="&#xe0ba;" d="M363 149 l0 32 q0 24 -36.5 39 q-36.5 15 -70.5 15 q-34 0 -70.5 -15 q-36.5 -15 -36.5 -39 l0 -32 l214 0 ZM290 354 q-14 14 -34 14 q-20 0 -34 -14 q-14 -14 -14 -34 q0 -20 14 -34 q14 -14 34 -14 q20 0 34 14 q14 14 14 34 q0 20 -14 34 ZM427 427 q17 0 29.5 -13 q12.5 -13 12.5 -30 l0 -256 q0 -17 -12.5 -30 q-12.5 -13 -29.5 -13 l-342 0 q-17 0 -29.5 13 q-12.5 13 -12.5 30 l0 256 q0 17 12.5 30 q12.5 13 29.5 13 l342 0 ZM85 0 l0 43 l342 0 l0 -43 l-342 0 ZM427 512 l0 -43 l-342 0 l0 43 l342 0 Z" /><glyph glyph-name="" unicode="&#xe0bb;" d="M427 181 q9 0 15 -6 q6 -6 6 -15 l0 -75 q0 -9 -6 -15 q-6 -6 -15 -6 q-150 0 -256.5 106.5 q-106.5 106.5 -106.5 256.5 q0 9 6 15 q6 6 15 6 l75 0 q9 0 15 -6 q6 -6 6 -15 l0 -1 q0 -41 12 -75 q4 -13 -5 -22 l-47 -47 q20 -38 61.5 -79.5 q41.5 -41.5 79.5 -61.5 l47 47 q7 7 15 7 q3 0 7 -2 q36 -12 76 -12 ZM427 405 l0 22 l-22 0 l0 -22 l22 0 ZM384 448 l64 0 l0 -64 l-43 0 l0 -43 l-21 0 l0 107 ZM320 405 l0 -64 l-64 0 l0 22 l43 0 l0 21 l-43 0 l0 64 l64 0 l0 -21 l-43 0 l0 -22 l43 0 ZM363 448 l0 -107 l-22 0 l0 107 l22 0 Z" /><glyph glyph-name="" unicode="&#xe0bc;" d="M226 478 q13 13 30 13 q17 0 30 -13 q13 -13 13 -30 q0 -17 -13 -30 q-13 -13 -30 -13 q-17 0 -30 13 q-13 13 -13 30 q0 17 13 30 ZM226 350 q13 13 30 13 q17 0 30 -13 q13 -13 13 -30 q0 -17 -13 -30 q-13 -13 -30 -13 q-17 0 -30 13 q-13 13 -13 30 q0 17 13 30 ZM354 350 q13 13 30 13 q17 0 30 -13 q13 -13 13 -30 q0 -17 -13 -30 q-13 -13 -30 -13 q-17 0 -30 13 q-13 13 -13 30 q0 17 13 30 ZM354 222 q13 13 30 13 q17 0 30 -13 q13 -13 13 -30 q0 -17 -13 -30 q-13 -13 -30 -13 q-17 0 -30 13 q-13 13 -13 30 q0 17 13 30 ZM226 222 q13 13 30 13 q17 0 30 -13 q13 -13 13 -30 q0 -17 -13 -30 q-13 -13 -30 -13 q-17 0 -30 13 q-13 13 -13 30 q0 17 13 30 ZM414 418 q-13 -13 -30 -13 q-17 0 -30 13 q-13 13 -13 30 q0 17 13 30 q13 13 30 13 q17 0 30 -13 q13 -13 13 -30 q0 -17 -13 -30 ZM98 222 q13 13 30 13 q17 0 30 -13 q13 -13 13 -30 q0 -17 -13 -30 q-13 -13 -30 -13 q-17 0 -30 13 q-13 13 -13 30 q0 17 13 30 ZM98 350 q13 13 30 13 q17 0 30 -13 q13 -13 13 -30 q0 -17 -13 -30 q-13 -13 -30 -13 q-17 0 -30 13 q-13 13 -13 30 q0 17 13 30 ZM98 478 q13 13 30 13 q17 0 30 -13 q13 -13 13 -30 q0 -17 -13 -30 q-13 -13 -30 -13 q-17 0 -30 13 q-13 13 -13 30 q0 17 13 30 ZM226 94 q13 13 30 13 q17 0 30 -13 q13 -13 13 -30 q0 -17 -13 -30 q-13 -13 -30 -13 q-17 0 -30 13 q-13 13 -13 30 q0 17 13 30 Z" /><glyph glyph-name="" unicode="&#xe0be;" d="M427 341 l0 43 l-171 -107 l-171 107 l0 -43 l171 -106 l171 106 ZM427 427 q17 0 29.5 -13 q12.5 -13 12.5 -30 l0 -256 q0 -17 -12.5 -30 q-12.5 -13 -29.5 -13 l-342 0 q-17 0 -29.5 13 q-12.5 13 -12.5 30 l0 256 q0 17 12.5 30 q12.5 13 29.5 13 l342 0 Z" /><glyph glyph-name="" unicode="&#xe0bf;" d="M363 256 q0 -9 -6.5 -15 q-6.5 -6 -15.5 -6 l-213 0 l-85 -86 l0 299 q0 9 6 15 q6 6 15 6 l277 0 q9 0 15.5 -6 q6.5 -6 6.5 -15 l0 -192 ZM448 384 q9 0 15 -6 q6 -6 6 -15 l0 -320 l-85 85 l-235 0 q-9 0 -15 6 q-6 6 -6 15 l0 43 l277 0 l0 192 l43 0 Z" /><glyph glyph-name="" unicode="&#xe0c3;" d="M341 149 l64 0 l-85 -85 l-85 85 l64 0 l0 150 l42 0 l0 -150 ZM192 448 l85 -85 l-64 0 l0 -150 l-42 0 l0 150 l-64 0 l85 85 Z" /><glyph glyph-name="" unicode="&#xe0c4;" d="M256 403 l-49 -48 l-30 30 l79 79 l121 -121 q38 -38 47 -91.5 q9 -53.5 -13 -100.5 l-155 154 l0 98 ZM256 94 l0 103 l-102 102 q-26 -34 -26 -77 q0 -22 11 -48 q11 -26 27 -42 q38 -38 90 -38 ZM441 67 l7 -8 l-27 -27 l-58 58 q-47 -38 -107 -38 q-29 0 -64.5 14.5 q-35.5 14.5 -56.5 35.5 q-21 21 -35.5 56 q-14.5 35 -14.5 64 q0 25 11 57 q11 32 27 51 l-59 59 l27 27 q299 -299 350 -349 Z" /><glyph glyph-name="" unicode="&#xe0c6;" d="M321 293 q20 20 20 48 q0 35 -25 60.5 q-25 25.5 -60 25.5 q-35 0 -60 -25.5 q-25 -25.5 -25 -60.5 l42 0 q0 17 13 30 q13 13 30 13 q17 0 30 -13 q13 -13 13 -30 q0 -17 -13 -30 l-26 -27 q-25 -27 -25 -60 l0 -11 l42 0 q0 34 25 61 l19 19 ZM277 128 l0 43 l-42 0 l0 -43 l42 0 ZM405 469 q17 0 30 -12.5 q13 -12.5 13 -29.5 l0 -299 q0 -17 -13 -30 q-13 -13 -30 -13 l-85 0 l-64 -64 l-64 64 l-85 0 q-18 0 -30.5 12.5 q-12.5 12.5 -12.5 30.5 l0 299 q0 18 12.5 30 q12.5 12 30.5 12 l298 0 Z" /><glyph glyph-name="" unicode="&#xe0c7;" d="M250 267 q109 -108 177 -176 l-27 -27 l-72 71 q-16 -24 -34 -47 q-18 -23 -28 -34 l-10 -11 q-6 7 -16 18.5 q-10 11.5 -36 46 q-26 34.5 -45.5 67 q-19.5 32.5 -35.5 73.5 q-16 41 -16 72 q0 11 4 33 l-68 68 l27 27 l178 -178 l2 -3 ZM256 373 q-23 0 -39 -18 l-69 68 q18 19 50 32.5 q32 13.5 58 13.5 q62 0 105.5 -43.5 q43.5 -43.5 43.5 -105.5 q0 -48 -36 -117 l-77 78 q17 15 17 39 q0 22 -15.5 37.5 q-15.5 15.5 -37.5 15.5 Z" /><glyph glyph-name="" unicode="&#xe0c8;" d="M218.5 282.5 q15.5 -15.5 37.5 -15.5 q22 0 37.5 15.5 q15.5 15.5 15.5 37.5 q0 22 -15.5 37.5 q-15.5 15.5 -37.5 15.5 q-22 0 -37.5 -15.5 q-15.5 -15.5 -15.5 -37.5 q0 -22 15.5 -37.5 ZM150.5 425.5 q43.5 43.5 105.5 43.5 q62 0 105.5 -43.5 q43.5 -43.5 43.5 -105.5 q0 -31 -15.5 -71 q-15.5 -40 -37.5 -75 q-22 -35 -43.5 -65.5 q-21.5 -30.5 -36.5 -48.5 l-16 -17 q-6 7 -16 18.5 q-10 11.5 -36 46 q-26 34.5 -45.5 67 q-19.5 32.5 -35.5 73.5 q-16 41 -16 72 q0 62 43.5 105.5 Z" /><glyph glyph-name="" unicode="&#xe0c9;" d="M384 341 l0 43 l-256 0 l0 -43 l256 0 ZM384 277 l0 43 l-256 0 l0 -43 l256 0 ZM384 213 l0 43 l-256 0 l0 -43 l256 0 ZM427 469 q17 0 29.5 -12.5 q12.5 -12.5 12.5 -29.5 l0 -256 q0 -17 -12.5 -30 q-12.5 -13 -29.5 -13 l-299 0 l-85 -85 l0 384 q0 17 12.5 29.5 q12.5 12.5 29.5 12.5 l342 0 Z" /><glyph glyph-name="" unicode="&#xe0ca;" d="M427 469 q17 0 29.5 -12.5 q12.5 -12.5 12.5 -29.5 l0 -256 q0 -17 -12.5 -30 q-12.5 -13 -29.5 -13 l-299 0 l-85 -85 l0 384 q0 17 12.5 29.5 q12.5 12.5 29.5 12.5 l342 0 Z" /><glyph glyph-name="" unicode="&#xe0cb;" d="M427 171 l0 256 l-342 0 l0 -299 l43 43 l299 0 ZM427 469 q17 0 29.5 -12.5 q12.5 -12.5 12.5 -29.5 l0 -256 q0 -17 -12.5 -30 q-12.5 -13 -29.5 -13 l-299 0 l-85 -85 l0 384 q0 17 12.5 29.5 q12.5 12.5 29.5 12.5 l342 0 Z" /><glyph glyph-name="" unicode="&#xe0cc;" d="M78 429 l373 -372 l-28 -28 l-40 41 q-12 -6 -20 -6 l-214 0 q-17 0 -29.5 13 q-12.5 13 -12.5 30 l0 239 l-56 56 l27 27 ZM405 405 l0 -249 l-242 242 l50 50 l150 0 q17 0 29.5 -13 q12.5 -13 12.5 -30 Z" /><glyph glyph-name="" unicode="&#xe0cd;" d="M141 282 q48 -93 141 -141 l47 47 q10 10 22 5 q36 -12 76 -12 q9 0 15 -6 q6 -6 6 -15 l0 -75 q0 -9 -6 -15 q-6 -6 -15 -6 q-150 0 -256.5 106.5 q-106.5 106.5 -106.5 256.5 q0 9 6 15 q6 6 15 6 l75 0 q9 0 15 -6 q6 -6 6 -15 q0 -40 12 -76 q4 -13 -5 -22 l-47 -47 Z" /><glyph glyph-name="" unicode="&#xe0ce;" d="M70 459 l21 -22 l357 -357 l-27 -27 l-160 161 l-1 0 l-4 -1 q-17 0 -30 13 q-13 13 -13 30 l1 4 l-34 34 q-9 -18 -9 -38 q0 -49 42 -74 l-21 -37 q-29 17 -46.5 46.5 q-17.5 29.5 -17.5 64.5 q0 38 20 69 l-30 31 q-33 -46 -33 -100 q0 -46 23 -85.5 q23 -39.5 62 -62.5 l-21 -37 q-49 28 -77.5 77.5 q-28.5 49.5 -28.5 107.5 q0 74 44 131 l-44 45 l27 27 ZM256 427 q-43 0 -80 -20 l-31 31 q50 31 111 31 q88 0 150.5 -62.5 q62.5 -62.5 62.5 -150.5 q0 -60 -31 -111 l-32 31 q21 39 21 80 q0 70 -50.5 120.5 q-50.5 50.5 -120.5 50.5 ZM375 208 l-35 35 q1 4 1 13 q0 35 -25 60 q-25 25 -60 25 q-9 0 -13 -1 l-35 35 q22 9 48 9 q53 0 90.5 -37.5 q37.5 -37.5 37.5 -90.5 q0 -26 -9 -48 Z" /><glyph glyph-name="" unicode="&#xe0cf;" d="M381 213 q-8 21 -8 43 q0 22 8 43 l35 0 l32 42 l-42 43 q-18 -14 -35.5 -39 q-17.5 -25 -23.5 -46 q-6 -21 -6 -43 q0 -22 6 -43 q6 -21 23.5 -46 q17.5 -25 35.5 -39 l42 43 l-32 42 l-35 0 ZM299 128 l0 21 q0 29 -44 47.5 q-44 18.5 -84 18.5 q-40 0 -84 -18.5 q-44 -18.5 -44 -47.5 l0 -21 l256 0 ZM216 365 q-19 19 -45 19 q-26 0 -45 -19 q-19 -19 -19 -45 q0 -26 19 -45 q19 -19 45 -19 q26 0 45 19 q19 19 19 45 q0 26 -19 45 ZM469 448 q17 0 30 -13 q13 -13 13 -30 l0 -298 q0 -17 -13 -30 q-13 -13 -30 -13 l-426 0 q-17 0 -30 13 q-13 13 -13 30 l0 298 q0 17 13 30 q13 13 30 13 l426 0 Z" /><glyph glyph-name="" unicode="&#xe0d0;" d="M469 256 l0 128 l-170 0 l0 -128 l170 0 ZM299 128 l0 21 q0 29 -44 47.5 q-44 18.5 -84 18.5 q-40 0 -84 -18.5 q-44 -18.5 -44 -47.5 l0 -21 l256 0 ZM216 365 q-19 19 -45 19 q-26 0 -45 -19 q-19 -19 -19 -45 q0 -26 19 -45 q19 -19 45 -19 q26 0 45 19 q19 19 19 45 q0 26 -19 45 ZM469 448 q17 0 30 -13 q13 -13 13 -30 l0 -298 q0 -17 -13 -30 q-13 -13 -30 -13 l-426 0 q-17 0 -30 13 q-13 13 -13 30 l0 298 q0 17 13 30 q13 13 30 13 l426 0 ZM448 341 l-64 -42 l-64 42 l0 22 l64 -43 l64 43 l0 -22 Z" /><glyph glyph-name="" unicode="&#xe0d1;" d="M137 303 q-74 74 -76 75 l30 31 l76 -76 l-30 -30 ZM277 469 l0 -106 l-42 0 l0 106 l42 0 ZM451 378 l-76 -75 l-30 30 l76 76 l30 -31 ZM506 156 q6 -6 6 -15 q0 -9 -6 -15 l-53 -53 q-6 -6 -15 -6 q-9 0 -15 6 q-28 26 -57 40 q-12 5 -12 19 l0 66 q-46 15 -98 15 q-52 0 -98 -15 l0 -66 q0 -15 -12 -20 q-32 -15 -57 -39 q-6 -6 -15 -6 q-9 0 -15 6 l-53 53 q-6 6 -6 15 q0 9 6 15 q105 100 250 100 q60 0 133 -29.5 q73 -29.5 117 -70.5 Z" /><glyph glyph-name="" unicode="&#xe0d2;" d="M320 85 l0 171 l-128 0 l0 -171 l128 0 ZM317 298 q10 0 17 -7 q7 -7 7 -17 l0 -207 q0 -10 -7 -17 q-7 -7 -17 -7 l-122 0 q-10 0 -17 7 q-7 7 -7 17 l0 207 q0 10 7 17.5 q7 7.5 17 7.5 l122 -1 ZM256 491 q40 0 88 -20 q48 -20 77 -49 l-30 -30 q-56 56 -135 56 q-79 0 -135 -56 l-30 30 q69 69 165 69 ZM149 361 q44 44 107 44 q63 0 107 -44 l-31 -30 q-31 31 -76 31 q-45 0 -76 -31 l-31 30 Z" /><glyph glyph-name="" unicode="&#xe0d3;" d="M405 363 l-298 0 l0 -214 l298 0 l0 214 ZM22 363 q0 17 12.5 29.5 q12.5 12.5 29.5 12.5 l384 0 q17 0 30 -12.5 q13 -12.5 13 -29.5 l0 -214 q0 -17 -13 -29.5 q-13 -12.5 -30 -12.5 l-384 0 q-17 0 -30 12.5 q-13 12.5 -13 29.5 l1 214 Z" /><glyph glyph-name="" unicode="&#xe0d4;" d="M363 107 l0 298 l-214 0 l0 -298 l214 0 ZM363 490 q17 0 29.5 -12.5 q12.5 -12.5 12.5 -29.5 l0 -384 q0 -17 -12.5 -30 q-12.5 -13 -29.5 -13 l-214 0 q-17 0 -29.5 13 q-12.5 13 -12.5 30 l0 384 q0 17 12.5 30 q12.5 13 29.5 13 l214 -1 Z" /><glyph glyph-name="" unicode="&#xe0d5;" d="M405 363 l-298 0 l0 -214 l298 0 l0 214 ZM22 363 q0 17 12.5 29.5 q12.5 12.5 29.5 12.5 l384 0 q17 0 30 -12.5 q13 -12.5 13 -29.5 l0 -214 q0 -17 -13 -29.5 q-13 -12.5 -30 -12.5 l-384 0 q-17 0 -30 12.5 q-13 12.5 -13 29.5 l1 214 Z" /><glyph glyph-name="" unicode="&#xe0d6;" d="M363 107 l0 298 l-214 0 l0 -298 l214 0 ZM363 490 q17 0 29.5 -12.5 q12.5 -12.5 12.5 -29.5 l0 -384 q0 -17 -12.5 -30 q-12.5 -13 -29.5 -13 l-214 0 q-17 0 -29.5 13 q-12.5 13 -12.5 30 l0 384 q0 17 12.5 30 q12.5 13 29.5 13 l214 -1 Z" /><glyph glyph-name="" unicode="&#xe0d7;" d="M384 427 l85 -86 l-64 0 l0 -149 q0 -35 -25 -60 q-25 -25 -60 -25 q-35 0 -60 25 q-25 25 -25 60 l0 149 q0 17 -13 30 q-13 13 -30 13 q-17 0 -30 -13 q-13 -13 -13 -30 l0 -149 l64 0 l-85 -85 l-85 85 l64 0 l0 149 q0 35 25 60.5 q25 25.5 60 25.5 q35 0 60 -25.5 q25 -25.5 25 -60.5 l0 -149 q0 -17 13 -30 q13 -13 30 -13 q17 0 30 13 q13 13 13 30 l0 149 l-64 0 l85 86 Z" /><glyph glyph-name="" unicode="&#xe0d8;" d="M363 277 l0 43 l-43 0 l0 -43 l43 0 ZM277 277 l0 43 l-42 0 l0 -43 l42 0 ZM192 277 l0 43 l-43 0 l0 -43 l43 0 ZM427 469 q17 0 29.5 -12.5 q12.5 -12.5 12.5 -29.5 l0 -256 q0 -17 -12.5 -30 q-12.5 -13 -29.5 -13 l-299 0 l-85 -85 l0 384 q0 17 12.5 29.5 q12.5 12.5 29.5 12.5 l342 0 Z" /><glyph glyph-name="" unicode="&#xe0d9;" d="M342 214 q22 -22 53 -22 q31 0 52.5 22 q21.5 22 21.5 53 q0 31 -21.5 52.5 q-21.5 21.5 -52.5 21.5 q-31 0 -53 -21.5 q-22 -21.5 -22 -52.5 q0 -31 22 -53 ZM64.5 214 q21.5 -22 52.5 -22 q31 0 53 22 q22 22 22 53 q0 31 -22 52.5 q-22 21.5 -53 21.5 q-31 0 -52.5 -21.5 q-21.5 -21.5 -21.5 -52.5 q0 -31 21.5 -53 ZM311.5 350 q34.5 34 83.5 34 q49 0 83 -34 q34 -34 34 -83 q0 -49 -34 -83.5 q-34 -34.5 -83 -34.5 l-278 0 q-49 0 -83 34.5 q-34 34.5 -34 83.5 q0 49 34 83 q34 34 83 34 q49 0 83.5 -34 q34.5 -34 34.5 -83 q0 -43 -27 -75 l96 0 q-27 32 -27 75 q0 49 34.5 83 Z" /><glyph glyph-name="" unicode="&#xe0da;" d="M119.5 226 q12.5 -13 29.5 -13 q17 0 30 13 q13 13 13 30 q0 17 -13 30 q-13 13 -30 13 q-17 0 -29.5 -13 q-12.5 -13 -12.5 -30 q0 -17 12.5 -30 ZM270 299 l221 0 l0 -86 l-43 0 l0 -85 l-85 0 l0 85 l-93 0 q-13 -35 -48.5 -60 q-35.5 -25 -72.5 -25 q-53 0 -90.5 37.5 q-37.5 37.5 -37.5 90.5 q0 53 37.5 90.5 q37.5 37.5 90.5 37.5 q37 0 72.5 -25 q35.5 -25 48.5 -60 Z" /><glyph glyph-name="" unicode="&#xe0db;" d="M405 491 q17 0 30 -13 q13 -13 13 -30 l0 -384 q0 -17 -13 -30 q-13 -13 -30 -13 l-213 0 q-17 0 -30 13 q-13 13 -13 30 l0 64 l43 0 l0 -43 l213 0 l0 342 l-213 0 l0 -43 l-43 0 l0 64 q0 17 13 30 q13 13 30 13 l213 0 ZM277 337 l-85 -85 l85 -86 l-21 -21 l-85 85 l-86 -85 l-21 21 l85 86 l-85 85 l21 21 l86 -85 l85 85 l21 -21 Z" /><glyph glyph-name="" unicode="&#xe0dc;" d="M203 277 l0 32 q0 12 -9.5 20 q-9.5 8 -22.5 8 q-13 0 -22.5 -8 q-9.5 -8 -9.5 -20 l0 -32 l64 0 ZM230 277 q10 0 18 -8 q8 -8 8 -19 l0 -75 q0 -10 -8.5 -18 q-8.5 -8 -19.5 -8 l-117 0 q-10 0 -18 8.5 q-8 8.5 -8 19.5 l0 75 q0 10 8 17.5 q8 7.5 18 7.5 l0 32 q0 22 18.5 38 q18.5 16 41.5 16 q23 0 41 -16 q18 -16 18 -38 l0 -32 ZM405 491 q17 0 30 -13 q13 -13 13 -30 l0 -384 q0 -17 -13 -30 q-13 -13 -30 -13 l-213 0 q-17 0 -30 13 q-13 13 -13 30 l0 64 l43 0 l0 -43 l213 0 l0 342 l-213 0 l0 -43 l-43 0 l0 64 q0 17 13 30 q13 13 30 13 l213 0 Z" /><glyph glyph-name="" unicode="&#xe0dd;" d="M299 85 l0 342 l-214 0 l0 -342 l214 0 ZM299 491 q17 0 29.5 -13 q12.5 -13 12.5 -30 l0 -384 q0 -17 -12.5 -30 q-12.5 -13 -29.5 -13 l-214 0 q-17 0 -29.5 13 q-12.5 13 -12.5 30 l0 384 q0 17 12.5 30 q12.5 13 29.5 13 l214 0 ZM384 303 q20 -21 20 -47 q0 -26 -20 -45 l-21 22 q18 25 0 49 l21 21 ZM429 348 q40 -38 40 -91.5 q0 -53.5 -40 -90.5 l-22 22 q29 31 29 70.5 q0 39.5 -29 67.5 l22 22 Z" /><glyph glyph-name="" unicode="&#xe0de;" d="M384 490 q17 0 30 -12.5 q13 -12.5 13 -29.5 l0 -384 q0 -17 -13 -30 q-13 -13 -30 -13 l-213 0 q-17 0 -30 13 q-13 13 -13 30 l0 64 l43 0 l0 -21 l213 0 l0 298 l-213 0 l0 -21 l-43 0 l0 64 q0 17 13 30 q13 13 30 13 l213 -1 ZM122 229.5 q11 -10.5 27 -10.5 q16 0 27.5 10.5 q11.5 10.5 11.5 26.5 q0 16 -11.5 26.5 q-11.5 10.5 -27.5 10.5 q-16 0 -27 -10.5 q-11 -10.5 -11 -26.5 q0 -16 11 -26.5 ZM231 246 l23 -18 q4 -4 2 -7 l-22 -37 q-2 -4 -7 -2 l-27 10 q-8 -5 -19 -10 l-4 -28 q0 -5 -5 -5 l-44 0 q-6 0 -6 5 l-4 28 q-11 5 -19 10 l-27 -10 q-5 -2 -7 2 l-21 37 q-1 1 -0.5 3.5 q0.5 2.5 1.5 3.5 l23 18 q0 1 -0.5 4.5 q-0.5 3.5 -0.5 5.5 q0 2 0.5 5 q0.5 3 0.5 5 l-23 18 q-3 3 -2 7 l22 37 q2 4 7 2 l27 -10 q8 5 19 10 l4 28 q0 5 5 5 l44 0 q5 0 5 -5 l5 -28 q4 -2 18 -11 l28 11 q4 2 6 -2 l22 -37 q1 -1 0.5 -3.5 q-0.5 -2.5 -1.5 -3.5 l-23 -18 q0 -1 0.5 -4.5 q0.5 -3.5 0.5 -5.5 q0 -2 -0.5 -5.5 q-0.5 -3.5 -0.5 -4.5 Z" /><glyph glyph-name="" unicode="&#xe0df;" d="M213 256 l-42 0 l85 85 l85 -85 l-42 0 l0 -85 l-86 0 l0 85 ZM448 106 l0 300 l-384 0 l0 -300 l384 0 ZM448 448 q18 0 30.5 -12.5 q12.5 -12.5 12.5 -30.5 l0 -298 q0 -18 -12.5 -30.5 q-12.5 -12.5 -30.5 -12.5 l-384 0 q-18 0 -30.5 12.5 q-12.5 12.5 -12.5 30.5 l0 298 q0 18 12.5 30.5 q12.5 12.5 30.5 12.5 l384 0 Z" /><glyph glyph-name="" unicode="&#xe0e0;" d="M448 117 l0 246 q-33 10 -75 10 q-65 0 -117 -32 l0 -245 q52 32 117 32 q39 0 75 -11 ZM373 416 q76 0 118 -32 l0 -311 q0 -4 -3.5 -7.5 q-3.5 -3.5 -7.5 -3.5 q-3 0 -5 1 q-41 22 -102 22 q-65 0 -117 -32 q-43 32 -117 32 q-54 0 -102 -23 q-1 0 -2.5 -0.5 q-1.5 -0.5 -2.5 -0.5 q-4 0 -7.5 3 q-3.5 3 -3.5 7 l0 313 q43 32 118 32 q74 0 117 -32 q43 32 117 32 Z" /><glyph glyph-name="" unicode="&#xe0e1;" d="M256 277 l171 107 l-342 0 l171 -107 ZM427 128 l0 213 l-171 -106 l-171 106 l0 -213 l342 0 ZM427 427 q17 0 29.5 -13 q12.5 -13 12.5 -30 l0 -256 q0 -17 -12.5 -30 q-12.5 -13 -29.5 -13 l-342 0 q-17 0 -29.5 13 q-12.5 13 -12.5 30 l0 256 q0 17 12.5 30 q12.5 13 29.5 13 l342 0 Z" /><glyph glyph-name="" unicode="&#xe0e2;" d="M277 203 l86 80 l-86 80 l0 -46 q-105 -15 -128 -125 q43 58 128 58 l0 -47 ZM427 128 l85 0 l0 -43 l-512 0 l0 43 l85 0 q-18 0 -30 12.5 q-12 12.5 -12 30.5 l0 213 q0 18 12 30.5 q12 12.5 30 12.5 l342 0 q18 0 30 -12.5 q12 -12.5 12 -30.5 l0 -213 q0 -17 -12.5 -30 q-12.5 -13 -29.5 -13 Z" /><glyph glyph-name="" unicode="&#xe0e3;" d="M149 192 q29 40 78 52 l-34 34 q-32 -31 -44 -86 ZM51 475 l421 -421 l-27 -27 l-58 58 l-387 0 l0 43 l85 0 q-18 0 -30 12 q-12 12 -12 30 l0 214 q0 19 14 31 l-33 33 l27 27 ZM469 170 q0 -25 -22 -37 l-118 118 l34 32 l-86 79 l0 -45 q-2 -1 -5.5 -1 q-3.5 0 -5.5 -1 l-112 111 l273 0 q18 0 30 -12 q12 -12 12 -30 l0 -214 ZM453 128 l59 0 l0 -43 l-17 0 l-42 43 Z" /><glyph glyph-name="" unicode="&#xe0e4;" d="M64 333 l30 30 l162 -162 l119 119 l-98 0 l0 43 l171 0 l0 -171 l-43 0 l0 98 l-149 -149 l-192 192 Z" /><glyph glyph-name="" unicode="&#xe0e5;" d="M85 297 q88 0 150 -62 q62 -62 62 -150 l-61 0 q0 62 -44.5 106.5 q-44.5 44.5 -106.5 44.5 l0 61 ZM85 417 q137 0 234.5 -97.5 q97.5 -97.5 97.5 -234.5 l-60 0 q0 113 -79.5 192.5 q-79.5 79.5 -192.5 79.5 l0 60 ZM85 132 q0 19 13.5 32.5 q13.5 13.5 33.5 13.5 q20 0 33 -13 q13 -13 13 -33 q0 -20 -13.5 -33.5 q-13.5 -13.5 -32.5 -13.5 q-20 0 -33.5 13.5 q-13.5 13.5 -13.5 33.5 Z" /><glyph glyph-name="" unicode="&#xe0e6;" d="M211 211 q19 -19 45 -19 q26 0 45 19 q19 19 19 45 q0 26 -19 45 q-19 19 -45 19 q-26 0 -45 -19 q-19 -19 -19 -45 q0 -26 19 -45 ZM105.5 406.5 q62.5 62.5 150.5 62.5 q88 0 150.5 -62.5 q62.5 -62.5 62.5 -150.5 l0 -31 q0 -32 -21.5 -54 q-21.5 -22 -52.5 -22 q-39 0 -63 32 q-32 -32 -76 -32 q-44 0 -75.5 31.5 q-31.5 31.5 -31.5 75.5 q0 44 31.5 75.5 q31.5 31.5 75.5 31.5 q44 0 75.5 -31.5 q31.5 -31.5 31.5 -75.5 l0 -31 q0 -13 9.5 -23 q9.5 -10 22.5 -10 q13 0 22.5 10 q9.5 10 9.5 23 l0 31 q0 70 -50.5 120.5 q-50.5 50.5 -120.5 50.5 q-70 0 -120.5 -50.5 q-50.5 -50.5 -50.5 -120.5 q0 -70 50.5 -120.5 q50.5 -50.5 120.5 -50.5 l107 0 l0 -42 l-107 0 q-88 0 -150.5 62.5 q-62.5 62.5 -62.5 150.5 q0 88 62.5 150.5 Z" /><glyph glyph-name="" unicode="&#xe0e7;" d="M273 230 q-67 0 -102 -47 q20 90 102 101 l0 36 l68 -64 l-68 -63 l0 37 ZM363 107 l0 298 l-214 0 l0 -298 l214 0 ZM363 490 q17 0 29.5 -12.5 q12.5 -12.5 12.5 -29.5 l0 -384 q0 -17 -12.5 -30 q-12.5 -13 -29.5 -13 l-214 0 q-17 0 -29.5 13 q-12.5 13 -12.5 30 l0 384 q0 17 12.5 30 q12.5 13 29.5 13 l214 -1 Z" /><glyph glyph-name="" unicode="&#xe0e8;" d="M448 384 l0 -43 l-64 0 l0 -64 l-43 0 l0 64 l-64 0 l0 43 l64 0 l0 64 l43 0 l0 -64 l64 0 ZM427 181 q9 0 15 -6 q6 -6 6 -15 l0 -75 q0 -9 -6 -15 q-6 -6 -15 -6 q-150 0 -256.5 106.5 q-106.5 106.5 -106.5 256.5 q0 9 6 15 q6 6 15 6 l75 0 q9 0 15 -6 q6 -6 6 -15 q0 -40 12 -76 q4 -13 -5 -22 l-47 -47 q47 -92 141 -141 l47 47 q9 9 22 5 q36 -12 76 -12 Z" /><glyph glyph-name="" unicode="&#xe0e9;" d="M311 341 l30 -30 l-55 -55 l55 -55 l-30 -30 l-55 55 l-55 -55 l-30 30 l55 55 l-55 55 l30 30 l55 -55 l55 55 ZM448 448 q17 0 30 -13 q13 -13 13 -30 l0 -298 q0 -17 -13 -30 q-13 -13 -30 -13 l-384 0 q-17 0 -30 13 q-13 13 -13 30 l0 298 q0 17 13 30 q13 13 30 13 l384 0 ZM448 105 l0 300 l-384 0 l0 -300 l384 0 Z" /><glyph glyph-name="" unicode="&#xe0ea;" d="M277 341 l43 0 l0 -170 l-43 0 l0 170 ZM192 341 l43 0 l0 -170 l-43 0 l0 170 ZM448 448 q17 0 30 -13 q13 -13 13 -30 l0 -298 q0 -17 -13 -30 q-13 -13 -30 -13 l-384 0 q-17 0 -30 13 q-13 13 -13 30 l0 298 q0 17 13 30 q13 13 30 13 l384 0 ZM448 105 l0 300 l-384 0 l0 -300 l384 0 Z" /><glyph glyph-name="" unicode="&#xe0eb;" d="M256 288 l149 75 l0 42 l-149 -74 l-149 74 l0 -42 l149 -75 ZM289 149 l-182 0 q-17 0 -30 13 q-13 13 -13 30 l0 213 q0 17 13 30 q13 13 30 13 l298 0 q17 0 30 -13 q13 -13 13 -30 l0 -153 q-27 15 -53 15 q-44 0 -75.5 -31.5 q-31.5 -31.5 -31.5 -75.5 q0 -2 0.5 -5.5 q0.5 -3.5 0.5 -5.5 ZM437 149 l0 22 l-85 0 l0 -22 l85 0 ZM342 213 q22 22 53 22 q31 0 52.5 -22 q21.5 -22 21.5 -53 q0 -31 -21.5 -53 q-21.5 -22 -52.5 -22 q-31 0 -53 22 q-22 22 -22 53 q0 31 22 53 Z" /><glyph glyph-name="" unicode="&#xe0ec;" d="M139 331 q16 16 44.5 27.5 q28.5 11.5 51.5 11.5 q23 0 51.5 -11.5 q28.5 -11.5 44.5 -27.5 l-28 -28 q-29 29 -69 29 q-40 0 -68 -29 l-27 28 ZM193 276 q17 17 42 17 q24 0 41 -17 l-41 -41 l-42 41 ZM84 385 q62 62 151 62 q89 0 151 -62 l-28 -27 q-51 51 -123.5 51 q-72.5 0 -123.5 -51 l-27 27 ZM469 43 l-341 0 l341 341 l0 -341 Z" /><glyph glyph-name="" unicode="&#xe0ed;" d="M322.5 159.5 q-29.5 -20.5 -66.5 -20.5 q-37 0 -66.5 20.5 q-29.5 20.5 -42.5 53.5 l35 0 q25 -42 74 -42 q49 0 74 42 l35 0 q-13 -33 -42.5 -53.5 ZM135.5 135.5 q50.5 -50.5 120.5 -50.5 q70 0 120.5 50.5 q50.5 50.5 50.5 120.5 q0 70 -50.5 120.5 q-50.5 50.5 -120.5 50.5 q-70 0 -120.5 -50.5 q-50.5 -50.5 -50.5 -120.5 q0 -70 50.5 -120.5 ZM105.5 406.5 q62.5 62.5 150.5 62.5 q88 0 150.5 -62.5 q62.5 -62.5 62.5 -150.5 q0 -88 -62.5 -150.5 q-62.5 -62.5 -150.5 -62.5 q-88 0 -150.5 62.5 q-62.5 62.5 -62.5 150.5 q0 88 62.5 150.5 ZM203.5 286.5 q-9.5 -9.5 -22.5 -9.5 q-13 0 -22.5 9.5 q-9.5 9.5 -9.5 22.5 q0 13 9.5 22.5 q9.5 9.5 22.5 9.5 q13 0 22.5 -9.5 q9.5 -9.5 9.5 -22.5 q0 -13 -9.5 -22.5 ZM353.5 286.5 q-9.5 -9.5 -22.5 -9.5 q-13 0 -22.5 9.5 q-9.5 9.5 -9.5 22.5 q0 13 9.5 22.5 q9.5 9.5 22.5 9.5 q13 0 22.5 -9.5 q9.5 -9.5 9.5 -22.5 q0 -13 -9.5 -22.5 Z" /><glyph glyph-name="" unicode="&#xe0ee;" d="M149 192 l43 0 l0 -43 l-43 0 l0 43 ZM149 277 l43 0 l0 -42 l-43 0 l0 42 ZM149 363 l43 0 l0 -43 l-43 0 l0 43 ZM235 192 l128 0 l0 -43 l-128 0 l0 43 ZM235 277 l128 0 l0 -42 l-128 0 l0 42 ZM235 363 l128 0 l0 -43 l-128 0 l0 43 ZM429 448 q7 0 13 -5.5 q6 -5.5 6 -13.5 l0 -346 q0 -7 -6 -13 q-6 -6 -13 -6 l-346 0 q-8 0 -13.5 6 q-5.5 6 -5.5 13 l0 346 q0 19 19 19 l346 0 ZM405 405 l-298 0 l0 -298 l298 0 l0 298 Z" /><glyph glyph-name="" unicode="&#xe0ef;" d="M256 107 l85 0 l-42 42 l-43 0 l0 -42 ZM213 192 l0 43 l-42 0 l0 -43 l42 0 ZM213 107 l0 42 l-42 0 l0 -42 l42 0 ZM128 277 l0 43 l-43 0 l0 -43 l43 0 ZM128 192 l0 43 l-43 0 l0 -43 l43 0 ZM128 107 l0 42 l-43 0 l0 -42 l43 0 ZM28 474 l448 -446 l-28 -28 l-64 64 l-341 0 l0 341 l-41 41 l26 28 ZM341 277 l43 0 l0 -42 l-43 0 l0 42 ZM171 405 l0 -19 l-62 62 l147 0 l0 -85 l213 0 l0 -276 l-42 43 l0 190 l-171 0 l0 -19 l-62 62 l19 0 l0 42 l-42 0 Z" /><glyph glyph-name="" unicode="&#xe0f0;" d="M150.5 425.5 q43.5 43.5 105.5 43.5 q62 0 105.5 -43.5 q43.5 -43.5 43.5 -105.5 q0 -75 -64 -122 l0 -49 q0 -9 -6 -15 q-6 -6 -15 -6 l-128 0 q-9 0 -15 6 q-6 6 -6 15 l0 49 q-64 44 -64 122 q0 62 43.5 105.5 ZM192 64 l0 21 l128 0 l0 -21 q0 -9 -6 -15 q-6 -6 -15 -6 l-86 0 q-9 0 -15 6 q-6 6 -6 15 Z" /><glyph glyph-name="" unicode="&#xe145;" d="M405 235 l-128 0 l0 -128 l-42 0 l0 128 l-128 0 l0 42 l128 0 l0 128 l42 0 l0 -128 l128 0 l0 -42 Z" /><glyph glyph-name="" unicode="&#xe146;" d="M363 235 l0 42 l-86 0 l0 86 l-42 0 l0 -86 l-86 0 l0 -42 l86 0 l0 -86 l42 0 l0 86 l86 0 ZM405 448 q17 0 30 -13 q13 -13 13 -30 l0 -298 q0 -17 -13 -30 q-13 -13 -30 -13 l-298 0 q-18 0 -30.5 12.5 q-12.5 12.5 -12.5 30.5 l0 298 q0 18 12.5 30.5 q12.5 12.5 30.5 12.5 l298 0 Z" /><glyph glyph-name="" unicode="&#xe147;" d="M363 235 l0 42 l-86 0 l0 86 l-42 0 l0 -86 l-86 0 l0 -42 l86 0 l0 -86 l42 0 l0 86 l86 0 ZM105.5 406.5 q62.5 62.5 150.5 62.5 q88 0 150.5 -62.5 q62.5 -62.5 62.5 -150.5 q0 -88 -62.5 -150.5 q-62.5 -62.5 -150.5 -62.5 q-88 0 -150.5 62.5 q-62.5 62.5 -62.5 150.5 q0 88 62.5 150.5 Z" /><glyph glyph-name="" unicode="&#xe148;" d="M135.5 135.5 q50.5 -50.5 120.5 -50.5 q70 0 120.5 50.5 q50.5 50.5 50.5 120.5 q0 70 -50.5 120.5 q-50.5 50.5 -120.5 50.5 q-70 0 -120.5 -50.5 q-50.5 -50.5 -50.5 -120.5 q0 -70 50.5 -120.5 ZM105.5 406.5 q62.5 62.5 150.5 62.5 q88 0 150.5 -62.5 q62.5 -62.5 62.5 -150.5 q0 -88 -62.5 -150.5 q-62.5 -62.5 -150.5 -62.5 q-88 0 -150.5 62.5 q-62.5 62.5 -62.5 150.5 q0 88 62.5 150.5 ZM277 363 l0 -86 l86 0 l0 -42 l-86 0 l0 -86 l-42 0 l0 86 l-86 0 l0 42 l86 0 l0 86 l42 0 Z" /><glyph glyph-name="" unicode="&#xe149;" d="M109 405 l294 0 l-20 22 l-256 0 l-18 -22 ZM256 139 l117 117 l-74 0 l0 43 l-86 0 l0 -43 l-74 0 l117 -117 ZM438 400 q10 -12 10 -27 l0 -266 q0 -17 -13 -30 q-13 -13 -30 -13 l-298 0 q-17 0 -30 13 q-13 13 -13 30 l0 266 q0 15 10 27 l29 36 q10 12 25 12 l256 0 q15 0 25 -12 l29 -36 Z" /><glyph glyph-name="" unicode="&#xe14a;" d="M405 179 l-76 77 l76 77 l-30 30 l-76 -77 l-77 77 l-30 -30 l77 -77 l-77 -77 l30 -30 l77 77 l76 -77 l30 30 ZM469 448 q17 0 30 -13 q13 -13 13 -30 l0 -298 q0 -17 -13 -30 q-13 -13 -30 -13 l-320 0 q-20 0 -34 19 l-115 173 l115 173 q14 19 34 19 l320 0 Z" /><glyph glyph-name="" unicode="&#xe14b;" d="M256 85 q70 0 120.5 50.5 q50.5 50.5 50.5 120.5 q0 24 -10.5 55 q-10.5 31 -25.5 50 l-240 -240 q45 -36 105 -36 ZM85 256 q0 -24 10.5 -55 q10.5 -31 25.5 -50 l240 240 q-45 36 -105 36 q-70 0 -120.5 -50.5 q-50.5 -50.5 -50.5 -120.5 ZM105.5 406.5 q62.5 62.5 150.5 62.5 q88 0 150.5 -62.5 q62.5 -62.5 62.5 -150.5 q0 -88 -62.5 -150.5 q-62.5 -62.5 -150.5 -62.5 q-88 0 -150.5 62.5 q-62.5 62.5 -62.5 150.5 q0 88 62.5 150.5 Z" /><glyph glyph-name="" unicode="&#xe14c;" d="M405 375 l-119 -119 l119 -119 l-30 -30 l-119 119 l-119 -119 l-30 30 l119 119 l-119 119 l30 30 l119 -119 l119 119 l30 -30 Z" /><glyph glyph-name="" unicode="&#xe14d;" d="M405 64 l0 299 l-234 0 l0 -299 l234 0 ZM405 405 q17 0 30 -12.5 q13 -12.5 13 -29.5 l0 -299 q0 -17 -13 -30 q-13 -13 -30 -13 l-234 0 q-17 0 -30 13 q-13 13 -13 30 l0 299 q0 17 13 29.5 q13 12.5 30 12.5 l234 0 ZM341 491 l0 -43 l-256 0 l0 -299 l-42 0 l0 299 q0 17 12.5 30 q12.5 13 29.5 13 l256 0 Z" /><glyph glyph-name="" unicode="&#xe14e;" d="M405 448 l64 0 l0 -21 l-149 -150 l-43 43 l128 128 ZM245 256 q0 -11 11 -11 q11 0 11 11 q0 11 -11 11 q-11 0 -11 -11 ZM98 97.5 q13 -12.5 30 -12.5 q17 0 30 12.5 q13 12.5 13 30.5 q0 18 -13 30.5 q-13 12.5 -30 12.5 q-17 0 -30 -12.5 q-13 -12.5 -13 -30.5 q0 -18 13 -30.5 ZM98 353.5 q13 -12.5 30 -12.5 q17 0 30 12.5 q13 12.5 13 30.5 q0 18 -13 30.5 q-13 12.5 -30 12.5 q-17 0 -30 -12.5 q-13 -12.5 -13 -30.5 q0 -18 13 -30.5 ZM206 349 l263 -264 l0 -21 l-64 0 l-149 149 l-50 -50 q7 -15 7 -35 q0 -35 -25 -60 q-25 -25 -60 -25 q-35 0 -60 25 q-25 25 -25 60 q0 35 25 60 q25 25 60 25 q20 0 35 -7 l50 50 l-50 50 q-15 -7 -35 -7 q-35 0 -60 25 q-25 25 -25 60 q0 35 25 60 q25 25 60 25 q35 0 60 -25 q25 -25 25 -60 q0 -20 -7 -35 Z" /><glyph glyph-name="" unicode="&#xe14f;" d="M405 85 l0 342 l-42 0 l0 -64 l-214 0 l0 64 l-42 0 l0 -342 l298 0 ZM271 463 q-6 6 -15 6 q-9 0 -15 -6 q-6 -6 -6 -15 q0 -9 6 -15 q6 -6 15 -6 q9 0 15 6 q6 6 6 15 q0 9 -6 15 ZM405 469 q17 0 30 -12.5 q13 -12.5 13 -29.5 l0 -342 q0 -17 -13 -29.5 q-13 -12.5 -30 -12.5 l-298 0 q-17 0 -30 12.5 q-13 12.5 -13 29.5 l0 342 q0 17 13 29.5 q13 12.5 30 12.5 l89 0 q7 19 23 31 q16 12 37 12 q21 0 37 -12 q16 -12 23 -31 l89 0 Z" /><glyph glyph-name="" unicode="&#xe150;" d="M442 362 l-39 -39 l-80 80 l39 39 q6 6 15 6 q9 0 15 -6 l50 -50 q6 -6 6 -15 q0 -9 -6 -15 ZM64 144 l236 236 l80 -80 l-236 -236 l-80 0 l0 80 Z" /><glyph glyph-name="" unicode="&#xe151;" d="M256 235 l176 110 l-176 103 l-176 -103 l176 -110 ZM469 341 l0 -213 q0 -17 -12.5 -30 q-12.5 -13 -29.5 -13 l-342 0 q-17 0 -29.5 13 q-12.5 13 -12.5 30 l0 213 q0 25 20 37 l193 113 l193 -113 q20 -12 20 -37 Z" /><glyph glyph-name="" unicode="&#xe152;" d="M128 235 l0 42 l256 0 l0 -42 l-256 0 ZM64 384 l384 0 l0 -43 l-384 0 l0 43 ZM213 128 l0 43 l86 0 l0 -43 l-86 0 Z" /><glyph glyph-name="" unicode="&#xe153;" d="M307 384 l120 0 l0 -213 l-150 0 l-8 42 l-120 0 l0 -149 l-42 0 l0 363 l192 0 l8 -43 Z" /><glyph glyph-name="" unicode="&#xe154;" d="M256 341 l0 86 l171 -171 l-171 -171 l0 86 l-171 0 l0 170 l171 0 Z" /><glyph glyph-name="" unicode="&#xe155;" d="M296 116 q14 0 28 18.5 q14 18.5 18 56.5 q-30 -8 -46 -27 q-16 -19 -16 -32 q0 -7 5 -11.5 q5 -4.5 11 -4.5 ZM98 365 l-37 36 q10 12 18 20 q27 27 58 27 q19 0 36.5 -15 q17.5 -15 17.5 -46 q0 -30 -28 -70 q-28 -39 -39 -75 q-6 -17 -3.5 -29 q2.5 -12 10.5 -12 q9 0 24 18 q22 22 49 58 q48 60 105 60 q42 0 62.5 -27.5 q20.5 -27.5 23.5 -61.5 l53 0 l0 -53 l-52 0 q-6 -69 -37 -100 q-31 -31 -64 -31 q-28 0 -48 19.5 q-20 19.5 -20 46.5 q0 33 30 69 q30 36 85 46 q-1 8 -1.5 11 q-0.5 3 -3 9.5 q-2.5 6.5 -6 9.5 q-3.5 3 -10.5 5.5 q-7 2.5 -17 2.5 q-28 0 -87 -73 q-17 -21 -23.5 -28.5 q-6.5 -7.5 -18.5 -17.5 q-12 -10 -23 -13 q-35 -11 -60 13 q-25 24 -25 60 q0 15 5.5 33 q5.5 18 14.5 35 q9 17 17 30.5 q8 13.5 15.5 24.5 q7.5 11 8.5 12 q17 28 6 32 q-7 3 -36 -26 Z" /><glyph glyph-name="" unicode="&#xe156;" d="M405 192 l0 213 l-299 0 l0 -213 l86 0 q0 -26 19 -45 q19 -19 45 -19 q26 0 45 19 q19 19 19 45 l85 0 ZM405 448 q18 0 30.5 -12.5 q12.5 -12.5 12.5 -30.5 l0 -298 q0 -17 -13 -30 q-13 -13 -30 -13 l-299 0 q-18 0 -30 12.5 q-12 12.5 -12 30.5 l0 298 q0 18 12 30.5 q12 12.5 30 12.5 l299 0 Z" /><glyph glyph-name="" unicode="&#xe157;" d="M363 363 q44 0 75 -31.5 q31 -31.5 31 -75.5 q0 -44 -31 -75.5 q-31 -31.5 -75 -31.5 l-86 0 l0 41 l86 0 q27 0 46.5 19.5 q19.5 19.5 19.5 46.5 q0 27 -19.5 46.5 q-19.5 19.5 -46.5 19.5 l-86 0 l0 41 l86 0 ZM171 235 l0 42 l170 0 l0 -42 l-170 0 ZM102.5 302.5 q-19.5 -19.5 -19.5 -46.5 q0 -27 19.5 -46.5 q19.5 -19.5 46.5 -19.5 l86 0 l0 -41 l-86 0 q-44 0 -75 31.5 q-31 31.5 -31 75.5 q0 44 31 75.5 q31 31.5 75 31.5 l86 0 l0 -41 l-86 0 q-27 0 -46.5 -19.5 Z" /><glyph glyph-name="" unicode="&#xe158;" d="M427 341 l0 43 l-171 -107 l-171 107 l0 -43 l171 -106 l171 106 ZM427 427 q17 0 29.5 -13 q12.5 -13 12.5 -30 l0 -256 q0 -17 -12.5 -30 q-12.5 -13 -29.5 -13 l-342 0 q-17 0 -29.5 13 q-12.5 13 -12.5 30 l0 256 q0 17 12.5 30 q12.5 13 29.5 13 l342 0 Z" /><glyph glyph-name="" unicode="&#xe159;" d="M427 341 l0 43 l-171 -107 l-171 107 l0 -43 l171 -106 l171 106 ZM427 427 q17 0 29.5 -13 q12.5 -13 12.5 -30 l0 -256 q0 -17 -12.5 -30 q-12.5 -13 -29.5 -13 l-342 0 q-17 0 -29.5 13 q-12.5 13 -12.5 30 l0 256 q0 17 12.5 30 q12.5 13 29.5 13 l342 0 Z" /><glyph glyph-name="" unicode="&#xe15a;" d="M393 286 l76 77 l0 -192 l-192 0 l78 77 q-48 40 -110 40 q-51 0 -98.5 -34 q-47.5 -34 -63.5 -83 l-50 16 q22 68 80.5 111 q58.5 43 131.5 43 q85 0 148 -55 Z" /><glyph glyph-name="" unicode="&#xe15b;" d="M405 235 l-298 0 l0 42 l298 0 l0 -42 Z" /><glyph glyph-name="" unicode="&#xe15c;" d="M363 235 l0 42 l-214 0 l0 -42 l214 0 ZM105.5 406.5 q62.5 62.5 150.5 62.5 q88 0 150.5 -62.5 q62.5 -62.5 62.5 -150.5 q0 -88 -62.5 -150.5 q-62.5 -62.5 -150.5 -62.5 q-88 0 -150.5 62.5 q-62.5 62.5 -62.5 150.5 q0 88 62.5 150.5 Z" /><glyph glyph-name="" unicode="&#xe15d;" d="M135.5 135.5 q50.5 -50.5 120.5 -50.5 q70 0 120.5 50.5 q50.5 50.5 50.5 120.5 q0 70 -50.5 120.5 q-50.5 50.5 -120.5 50.5 q-70 0 -120.5 -50.5 q-50.5 -50.5 -50.5 -120.5 q0 -70 50.5 -120.5 ZM105.5 406.5 q62.5 62.5 150.5 62.5 q88 0 150.5 -62.5 q62.5 -62.5 62.5 -150.5 q0 -88 -62.5 -150.5 q-62.5 -62.5 -150.5 -62.5 q-88 0 -150.5 62.5 q-62.5 62.5 -62.5 150.5 q0 88 62.5 150.5 ZM149 277 l214 0 l0 -42 l-214 0 l0 42 Z" /><glyph glyph-name="" unicode="&#xe15e;" d="M213 320 q104 -15 160.5 -79.5 q56.5 -64.5 74.5 -155.5 q-77 109 -235 109 l0 -87 l-149 149 l149 149 l0 -85 Z" /><glyph glyph-name="" unicode="&#xe15f;" d="M277 320 q104 -15 160.5 -79.5 q56.5 -64.5 74.5 -155.5 q-77 109 -235 109 l0 -87 l-149 149 l149 149 l0 -85 ZM149 341 l-85 -85 l85 -85 l0 -64 l-149 149 l149 149 l0 -64 Z" /><glyph glyph-name="" unicode="&#xe160;" d="M277 235 l0 128 l-42 0 l0 -128 l42 0 ZM236.5 151.5 q8.5 -8.5 19.5 -8.5 q11 0 19.5 8.5 q8.5 8.5 8.5 19.5 q0 11 -8.5 19 q-8.5 8 -19.5 8 q-11 0 -19.5 -8 q-8.5 -8 -8.5 -19 q0 -11 8.5 -19.5 ZM336 448 l112 -112 l0 -160 l-112 -112 l-160 0 l-112 112 l0 160 l112 112 l160 0 Z" /><glyph glyph-name="" unicode="&#xe161;" d="M320 320 l0 85 l-213 0 l0 -85 l213 0 ZM211 126 q19 -19 45 -19 q26 0 45 19 q19 19 19 45 q0 26 -19 45 q-19 19 -45 19 q-26 0 -45 -19 q-19 -19 -19 -45 q0 -26 19 -45 ZM363 448 l85 -85 l0 -256 q0 -17 -13 -30 q-13 -13 -30 -13 l-298 0 q-18 0 -30.5 12.5 q-12.5 12.5 -12.5 30.5 l0 298 q0 18 12.5 30.5 q12.5 12.5 30.5 12.5 l256 0 Z" /><glyph glyph-name="" unicode="&#xe162;" d="M192 320 l0 -128 l128 0 l0 128 l-128 0 ZM149 149 l0 214 l214 0 l0 -214 l-214 0 ZM320 405 l0 43 l43 0 l0 -43 l-43 0 ZM320 64 l0 43 l43 0 l0 -43 l-43 0 ZM405 149 l0 43 l43 0 l0 -43 l-43 0 ZM405 320 l0 43 l43 0 l0 -43 l-43 0 ZM405 64 l0 43 l43 0 q0 -17 -13 -30 q-13 -13 -30 -13 ZM405 235 l0 42 l43 0 l0 -42 l-43 0 ZM235 64 l0 43 l42 0 l0 -43 l-42 0 ZM192 448 l0 -43 l-43 0 l0 43 l43 0 ZM64 149 l0 43 l43 0 l0 -43 l-43 0 ZM107 64 q-17 0 -30 13 q-13 13 -13 30 l43 0 l0 -43 ZM405 448 q17 0 30 -13 q13 -13 13 -30 l-43 0 l0 43 ZM277 448 l0 -43 l-42 0 l0 43 l42 0 ZM64 320 l0 43 l43 0 l0 -43 l-43 0 ZM149 64 l0 43 l43 0 l0 -43 l-43 0 ZM64 235 l0 42 l43 0 l0 -42 l-43 0 ZM64 405 q0 17 13 30 q13 13 30 13 l0 -43 l-43 0 Z" /><glyph glyph-name="" unicode="&#xe163;" d="M43 64 l0 149 l320 43 l-320 43 l0 149 l448 -192 l-448 -192 Z" /><glyph glyph-name="" unicode="&#xe164;" d="M64 235 l0 42 l256 0 l0 -42 l-256 0 ZM64 384 l384 0 l0 -43 l-384 0 l0 43 ZM64 128 l0 43 l128 0 l0 -43 l-128 0 Z" /><glyph glyph-name="" unicode="&#xe165;" d="M256 384 l-40 -107 l80 0 l-40 107 ZM203 239 l-20 -47 l-44 0 l101 235 l32 0 l101 -235 l-44 0 l-20 47 l-106 0 ZM107 149 l298 0 l0 -42 l-298 0 l0 42 Z" /><glyph glyph-name="" unicode="&#xe166;" d="M267 341 q73 0 131 -43 q58 -43 81 -111 l-50 -16 q-17 52 -61.5 84.5 q-44.5 32.5 -100.5 32.5 q-62 0 -110 -40 l78 -77 l-192 0 l0 192 l76 -77 q63 55 148 55 Z" /><glyph glyph-name="" unicode="&#xe167;" d="M340 117 l45 0 l-109 278 l-40 0 l-109 -278 l45 0 l24 64 l120 0 l24 -64 ZM427 469 q17 0 29.5 -12.5 q12.5 -12.5 12.5 -29.5 l0 -342 q0 -17 -12.5 -29.5 q-12.5 -12.5 -29.5 -12.5 l-342 0 q-17 0 -29.5 12.5 q-12.5 12.5 -12.5 29.5 l0 342 q0 17 12.5 29.5 q12.5 12.5 29.5 12.5 l342 0 ZM212 224 l44 118 l44 -118 l-88 0 Z" /><glyph glyph-name="" unicode="&#xe168;" d="M341 299 l-85 -86 l-85 86 l42 0 l0 64 l86 0 l0 -64 l42 0 ZM405 192 l0 213 l-299 0 l0 -213 l86 0 q0 -26 19 -45 q19 -19 45 -19 q26 0 45 19 q19 19 19 45 l85 0 ZM405 448 q17 0 30 -13 q13 -13 13 -30 l0 -298 q0 -17 -13 -30 q-13 -13 -30 -13 l-299 0 q-18 0 -30 12.5 q-12 12.5 -12 30.5 l0 298 q0 18 12 30.5 q12 12.5 30 12.5 l299 0 Z" /><glyph glyph-name="" unicode="&#xe169;" d="M109 405 l294 0 l-20 22 l-256 0 l-18 -22 ZM256 309 l-117 -117 l74 0 l0 -43 l86 0 l0 43 l74 0 l-117 117 ZM438 401 q10 -12 10 -28 l0 -266 q0 -17 -13 -30 q-13 -13 -30 -13 l-298 0 q-18 0 -30.5 12.5 q-12.5 12.5 -12.5 30.5 l0 266 q0 16 10 28 l29 35 q10 12 25 12 l256 0 q15 0 25 -12 l29 -35 Z" /><glyph glyph-name="" unicode="&#xe16a;" d="M235 117 l85 86 l-85 85 l-22 -21 l64 -64 l-64 -64 l22 -22 ZM213 405 l0 -42 l86 0 l0 42 l-86 0 ZM299 448 q17 0 29.5 -12.5 q12.5 -12.5 12.5 -30.5 l0 -42 l86 0 q17 0 29.5 -13 q12.5 -13 12.5 -30 l0 -235 q0 -17 -12.5 -29.5 q-12.5 -12.5 -29.5 -12.5 l-342 0 q-17 0 -29.5 12.5 q-12.5 12.5 -12.5 29.5 l0 235 q0 17 12.5 30 q12.5 13 29.5 13 l86 0 l0 42 q0 17 12.5 30 q12.5 13 29.5 13 l86 0 Z" /><glyph glyph-name="" unicode="&#xe16b;" d="M384 405 q17 0 30 -12.5 q13 -12.5 13 -29.5 l0 -46 q-19 -7 -31 -23 q-12 -16 -12 -37 l0 -44 l-256 0 l0 44 q0 21 -12 37 q-12 16 -31 23 l0 46 q0 17 13 29.5 q13 12.5 30 12.5 l256 0 ZM418 286 q13 13 30 13 q17 0 30 -13 q13 -13 13 -30 l0 -107 q0 -17 -13 -29.5 q-13 -12.5 -30 -12.5 l-384 0 q-17 0 -30 12.5 q-13 12.5 -13 29.5 l0 107 q0 17 13 30 q13 13 30 13 q17 0 30 -13 q13 -13 13 -30 l0 -64 l298 0 l0 64 q0 17 13 30 Z" /><glyph glyph-name="" unicode="&#xe16c;" d="M299 405 l0 -42 l-256 0 l0 42 l64 0 l21 22 l85 0 l22 -22 l64 0 ZM64 128 l0 213 l213 0 l0 -213 q0 -17 -12.5 -30 q-12.5 -13 -29.5 -13 l-128 0 q-17 0 -30 13 q-13 13 -13 30 ZM320 256 l128 0 l0 -43 l-128 0 l0 43 ZM320 341 l149 0 l0 -42 l-149 0 l0 42 ZM320 171 l85 0 l0 -43 l-85 0 l0 43 Z" /><glyph glyph-name="" unicode="&#xe16d;" d="M83.5 169 q-40.5 41 -40.5 98 q0 57 40.5 97.5 q40.5 40.5 97.5 40.5 l75 0 l0 -42 l-75 0 q-40 0 -68 -28 q-28 -28 -28 -68 q0 -40 28 -68 q28 -28 68 -28 l11 0 l0 42 l64 -64 l-64 -64 l0 43 l-11 0 q-57 0 -97.5 41 ZM299 171 l170 0 l0 -43 l-170 0 l0 43 ZM299 288 l170 0 l0 -43 l-170 0 l0 43 ZM299 405 l170 0 l0 -42 l-170 0 l0 42 Z" /><glyph glyph-name="" unicode="&#xe16e;" d="M384 213 l0 128 l-107 0 l-21 43 l-107 0 l0 -128 l128 0 l22 -43 l85 0 ZM299 384 l128 0 l0 -213 l-150 0 l-21 42 l-107 0 l0 -149 l-42 0 l0 363 l170 0 l22 -43 Z" /><glyph glyph-name="" unicode="&#xe16f;" d="M43 421 l27 27 l357 -357 l-27 -27 l-86 85 l-37 0 l0 37 l-48 49 l-58 0 l0 42 l15 0 l-44 44 q-25 -3 -42 -21.5 q-17 -18.5 -17 -43.5 q0 -27 19.5 -46.5 q19.5 -19.5 46.5 -19.5 l86 0 l0 -41 l-86 0 q-44 0 -75 31.5 q-31 31.5 -31 75.5 q0 30 19 59 q19 29 47 40 l-66 66 ZM341 277 l0 -42 l-4 0 l-42 42 l46 0 ZM363 363 q44 0 75 -31.5 q31 -31.5 31 -75.5 q0 -65 -58 -95 l-31 31 q21 5 35 23 q14 18 14 41 q0 27 -19.5 46.5 q-19.5 19.5 -46.5 19.5 l-86 0 l0 41 l86 0 Z" /><glyph glyph-name="" unicode="&#xe170;" d="M236.5 151.5 q8.5 -8.5 19.5 -8.5 q11 0 19.5 8.5 q8.5 8.5 8.5 19.5 q0 11 -8.5 19 q-8.5 8 -19.5 8 q-11 0 -19.5 -8 q-8.5 -8 -8.5 -19 q0 -11 8.5 -19.5 ZM475 48 l-27 -27 l-77 78 l-35 -35 l-160 0 l-112 112 l0 160 l35 35 l-78 77 l27 27 l427 -427 ZM235 363 l0 -20 l-82 82 l23 23 l160 0 l112 -112 l0 -160 l-23 -23 l-148 147 l0 63 l-42 0 Z" /><glyph glyph-name="" unicode="&#xe171;" d="M277 242 l56 55 l30 -30 l-107 -107 l-107 107 l30 30 l56 -55 l0 206 l42 0 l0 -206 ZM405 256 l43 0 l0 -149 q0 -17 -13 -30 q-13 -13 -30 -13 l-298 0 q-17 0 -30 13 q-13 13 -13 30 l0 149 l43 0 l0 -149 l298 0 l0 149 Z" /><glyph glyph-name="" unicode="&#xe172;" d="M149 213 l64 0 l0 -64 l-64 0 l0 64 ZM128 128 l107 0 l0 107 l-107 0 l0 -107 ZM149 363 l64 0 l0 -64 l-64 0 l0 64 ZM128 277 l107 0 l0 107 l-107 0 l0 -107 ZM405 64 l-298 0 q-17 0 -30 13 q-13 13 -13 30 l0 298 q0 17 13 30 q13 13 30 13 l298 0 q17 0 30 -13 q13 -13 13 -30 l0 -298 q0 -17 -13 -30 q-13 -13 -30 -13 ZM277 160 l107 0 l0 43 l-107 0 l0 -43 ZM277 309 l107 0 l0 43 l-107 0 l0 -43 Z" /><glyph glyph-name="" unicode="&#xe173;" d="M299 256 l117 0 l-117 117 l0 -117 ZM320 405 l128 -128 l0 -213 q0 -17 -13 -30 q-13 -13 -30 -13 l-235 0 q-17 0 -29.5 13 q-12.5 13 -12.5 30 l0 299 q0 17 13 29.5 q13 12.5 30 12.5 l149 0 ZM341 491 l0 -43 l-256 0 l0 -299 l-42 0 l0 299 q0 17 12.5 30 q12.5 13 29.5 13 l256 0 Z" /><glyph glyph-name="" unicode="&#xe174;" d="M330 75 l-74 74 l30 30 l44 -44 l109 110 l30 -30 l-139 -140 ZM295 281 q-25 -25 -60 -25 q-35 0 -60.5 25 q-25.5 25 -25.5 60 q0 35 25.5 60.5 q25.5 25.5 60.5 25.5 q35 0 60 -25.5 q25 -25.5 25 -60.5 q0 -35 -25 -60 ZM192 149 l64 -64 l-192 0 l0 43 q0 38 58.5 61.5 q58.5 23.5 112.5 23.5 q15 0 21 -1 l-64 -63 Z" /><glyph glyph-name="" unicode="&#xe175;" d="M272 463 q6 6 15 6 q11 0 15 -6 l106 -106 q6 -6 6 -15 q0 -9 -6 -15 l-136 -135 q-6 -6 -15 -6 q-9 0 -15 6 l-106 105 q-6 6 -6 15 q0 9 6 15 l136 136 ZM363 342 l-76 76 l-105 -106 l75 -75 l106 105 ZM384 235 l64 -64 l0 -86 q0 -18 -12.5 -30 q-12.5 -12 -30.5 -12 l-299 0 q-17 0 -29.5 12.5 q-12.5 12.5 -12.5 29.5 l0 86 l64 64 l18 0 l42 -43 l-43 0 l-38 -43 l298 0 l-37 43 l-41 0 l42 43 l15 0 Z" /><glyph glyph-name="" unicode="&#xe176;" d="M300 322 q34 17 63 17 q29 0 63 -17 q24 -12 43 -12 l0 -42 q-29 0 -63 17 q-26 13 -43 13 q-18 0 -44 -13 q-34 -17 -63 -17 q-29 0 -63 17 q-26 13 -44 13 q-17 0 -43 -13 q-34 -17 -63 -17 l0 42 q19 0 43 12 q34 17 63 17 q29 0 63 -17 q24 -12 44 -12 q20 0 44 12 ZM426 417 q26 -13 43 -13 l0 -41 q-29 0 -63 17 q-26 13 -43 13 q-18 0 -44 -13 q-34 -17 -63 -17 q-29 0 -63 17 q-26 13 -44 13 q-17 0 -43 -13 q-34 -17 -63 -17 l0 41 q17 0 43 13 q34 17 63 17 q29 0 63 -17 q26 -13 44 -13 q18 0 44 13 q34 17 63 17 q29 0 63 -17 ZM300 227 q34 17 63 17 q29 0 63 -17 q24 -12 43 -12 l0 -42 q-29 0 -63 17 q-26 13 -43 13 q-18 0 -44 -13 q-34 -17 -63 -17 q-29 0 -63 17 q-26 13 -44 13 q-17 0 -43 -13 q-34 -17 -63 -17 l0 42 q19 0 43 12 q34 17 63 17 q29 0 63 -17 q24 -12 44 -12 q20 0 44 12 ZM300 132 q36 18 63 18 q27 0 63 -18 q24 -12 43 -12 l0 -42 q-29 0 -63 17 q-26 13 -43 13 q-18 0 -44 -13 q-34 -17 -63 -17 q-29 0 -63 17 q-26 13 -44 13 q-17 0 -43 -13 q-34 -17 -63 -17 l0 42 q19 0 43 12 q36 18 63 18 q27 0 63 -18 q24 -12 44 -12 q20 0 44 12 Z" /><glyph glyph-name="" unicode="&#xe177;" d="M223 213 l140 141 l-30 30 l-110 -111 l-44 45 l-30 -30 l74 -75 ZM150.5 425.5 q43.5 43.5 105.5 43.5 q62 0 105.5 -43.5 q43.5 -43.5 43.5 -105.5 q0 -31 -15.5 -71 q-15.5 -40 -37.5 -75 q-22 -35 -43.5 -65.5 q-21.5 -30.5 -36.5 -48.5 l-16 -17 q-6 7 -16 18.5 q-10 11.5 -36 46 q-26 34.5 -45.5 67 q-19.5 32.5 -35.5 73.5 q-16 41 -16 72 q0 62 43.5 105.5 Z" /><glyph glyph-name="" unicode="&#xe178;" d="M405 256 l0 -64 l64 0 l0 -43 l-64 0 l0 -64 l-42 0 l0 64 l-64 0 l0 43 l64 0 l0 64 l42 0 ZM102.5 302.5 q-19.5 -19.5 -19.5 -46.5 q0 -27 19.5 -46.5 q19.5 -19.5 46.5 -19.5 l86 0 l0 -41 l-86 0 q-44 0 -75 31.5 q-31 31.5 -31 75.5 q0 44 31 75.5 q31 31.5 75 31.5 l86 0 l0 -41 l-86 0 q-27 0 -46.5 -19.5 ZM429 256 q0 27 -19.5 46.5 q-19.5 19.5 -46.5 19.5 l-86 0 l0 41 l86 0 q44 0 75 -31.5 q31 -31.5 31 -75.5 l-40 0 ZM171 277 l170 0 l0 -42 l-170 0 l0 42 Z" /><glyph glyph-name="" unicode="&#xe179;" d="M427 363 l0 64 l-342 0 l0 -64 l342 0 ZM320 213 l0 43 l-128 0 l0 -43 l128 0 ZM427 469 q16 0 29 -12.5 q13 -12.5 13 -29.5 l0 -65 q0 -24 -21 -36 l0 -241 q0 -17 -14 -29.5 q-14 -12.5 -29 -12.5 l-298 0 q-15 0 -29 12.5 q-14 12.5 -14 29.5 l0 241 q-21 12 -21 36 l0 65 q0 17 13 29.5 q13 12.5 29 12.5 l342 0 Z" /><glyph glyph-name="" unicode="&#xe190;" d="M150.5 129 q43.5 -44 105.5 -44 q62 0 105.5 44 q43.5 44 43.5 106 q0 62 -43.5 105.5 q-43.5 43.5 -105.5 43.5 q-62 0 -105.5 -43.5 q-43.5 -43.5 -43.5 -105.5 q0 -62 43.5 -106 ZM120 370.5 q56 56.5 136 56.5 q80 0 136 -56.5 q56 -56.5 56 -135.5 q0 -79 -56 -135.5 q-56 -56.5 -136 -56.5 q-80 0 -136 56.5 q-56 56.5 -56 135.5 q0 79 56 135.5 ZM267 341 l0 -112 l85 -50 l-16 -26 l-101 60 l0 128 l32 0 ZM168 440 l-98 -82 l-27 32 l98 82 l27 -32 ZM469 390 l-27 -33 l-98 83 l27 32 l98 -82 Z" /><glyph glyph-name="" unicode="&#xe191;" d="M150.5 129 q43.5 -44 105.5 -44 q62 0 105.5 44 q43.5 44 43.5 106 q0 62 -43.5 105.5 q-43.5 43.5 -105.5 43.5 q-62 0 -105.5 -43.5 q-43.5 -43.5 -43.5 -105.5 q0 -62 43.5 -106 ZM120 371 q56 56 136 56 q80 0 136 -56 q56 -56 56 -136 q0 -80 -56 -136 q-56 -56 -136 -56 q-80 0 -136 56 q-56 56 -56 136 q0 80 56 136 ZM267 341 l0 -113 l85 -51 l-17 -26 l-100 62 l0 128 l32 0 ZM169 439 l-99 -81 l-27 32 l98 81 l28 -32 ZM469 390 l-27 -32 l-99 84 l28 32 l98 -84 Z" /><glyph glyph-name="" unicode="&#xe192;" d="M267 363 l0 -112 l96 -57 l-16 -27 l-112 68 l0 128 l32 0 ZM135.5 135.5 q50.5 -50.5 120.5 -50.5 q70 0 120.5 50.5 q50.5 50.5 50.5 120.5 q0 70 -50.5 120.5 q-50.5 50.5 -120.5 50.5 q-70 0 -120.5 -50.5 q-50.5 -50.5 -50.5 -120.5 q0 -70 50.5 -120.5 ZM105.5 406.5 q62.5 62.5 150.5 62.5 q88 0 150.5 -62.5 q62.5 -62.5 62.5 -150.5 q0 -88 -62.5 -150.5 q-62.5 -62.5 -150.5 -62.5 q-88 0 -150.5 62.5 q-62.5 62.5 -62.5 150.5 q0 88 62.5 150.5 Z" /><glyph glyph-name="" unicode="&#xe193;" d="M277 320 l0 -64 l64 0 l0 -43 l-64 0 l0 -64 l-42 0 l0 64 l-64 0 l0 43 l64 0 l0 64 l42 0 ZM150.5 129 q43.5 -44 105.5 -44 q62 0 105.5 44 q43.5 44 43.5 106 q0 62 -43.5 105.5 q-43.5 43.5 -105.5 43.5 q-62 0 -105.5 -43.5 q-43.5 -43.5 -43.5 -105.5 q0 -62 43.5 -106 ZM120 370.5 q56 56.5 136 56.5 q80 0 136 -56.5 q56 -56.5 56 -135.5 q0 -79 -56 -135.5 q-56 -56.5 -136 -56.5 q-80 0 -136 56.5 q-56 56.5 -56 135.5 q0 79 56 135.5 ZM469 390 l-27 -33 l-98 83 l27 32 l98 -82 ZM168 440 l-98 -82 l-27 32 l98 82 l27 -32 Z" /><glyph glyph-name="" unicode="&#xe194;" d="M64 400 l27 27 l336 -336 l-27 -27 l-123 122 l0 -79 l43 -32 l0 -32 l-75 21 l-74 -21 l0 32 l42 32 l0 117 l-170 -53 l0 42 l127 80 l-106 107 ZM277 320 l171 -107 l0 -42 l-68 21 l-167 167 l0 78 q0 13 9.5 22.5 q9.5 9.5 22.5 9.5 q13 0 22.5 -9.5 q9.5 -9.5 9.5 -22.5 l0 -117 Z" /><glyph glyph-name="" unicode="&#xe195;" d="M448 171 l-171 53 l0 -117 l43 -32 l0 -32 l-75 21 l-74 -21 l0 32 l42 32 l0 117 l-170 -53 l0 42 l170 107 l0 117 q0 13 9.5 22.5 q9.5 9.5 22.5 9.5 q13 0 22.5 -9.5 q9.5 -9.5 9.5 -22.5 l0 -117 l171 -107 l0 -42 Z" /><glyph glyph-name="" unicode="&#xe19c;" d="M277 213 l0 107 l-42 0 l0 -107 l42 0 ZM277 128 l0 43 l-42 0 l0 -43 l42 0 ZM334 427 q12 0 20.5 -8.5 q8.5 -8.5 8.5 -20.5 l0 -327 q0 -12 -8.5 -20 q-8.5 -8 -20.5 -8 l-156 0 q-12 0 -20.5 8 q-8.5 8 -8.5 20 l0 327 q0 12 8.5 20.5 q8.5 8.5 20.5 8.5 l35 0 l0 42 l86 0 l0 -42 l35 0 Z" /><glyph glyph-name="" unicode="&#xe1a3;" d="M235 85 l85 160 l-43 0 l0 118 l-85 -160 l43 0 l0 -118 ZM334 427 q12 0 20.5 -8.5 q8.5 -8.5 8.5 -20.5 l0 -327 q0 -12 -8.5 -20 q-8.5 -8 -20.5 -8 l-156 0 q-12 0 -20.5 8 q-8.5 8 -8.5 20 l0 327 q0 12 8.5 20.5 q8.5 8.5 20.5 8.5 l35 0 l0 42 l86 0 l0 -42 l35 0 Z" /><glyph glyph-name="" unicode="&#xe1a4;" d="M334 427 q12 0 20.5 -8.5 q8.5 -8.5 8.5 -20.5 l0 -327 q0 -12 -8.5 -20 q-8.5 -8 -20.5 -8 l-156 0 q-12 0 -20.5 8 q-8.5 8 -8.5 20 l0 327 q0 12 8.5 20.5 q8.5 8.5 20.5 8.5 l35 0 l0 42 l86 0 l0 -42 l35 0 Z" /><glyph glyph-name="" unicode="&#xe1a5;" d="M334 427 q12 0 20.5 -8.5 q8.5 -8.5 8.5 -20.5 l0 -327 q0 -12 -8.5 -20 q-8.5 -8 -20.5 -8 l-156 0 q-12 0 -20.5 8 q-8.5 8 -8.5 20 l0 327 q0 12 8.5 20.5 q8.5 8.5 20.5 8.5 l35 0 l0 42 l86 0 l0 -42 l35 0 Z" /><glyph glyph-name="" unicode="&#xe1a6;" d="M305 241 q15 15 15 36 q0 26 -19 45 q-19 19 -45 19 q-26 0 -45 -19 q-19 -19 -19 -45 l32 0 q0 13 9 22.5 q9 9.5 23 9.5 q14 0 23 -9.5 q9 -9.5 9 -22.5 q0 -13 -9 -22 l-20 -20 q-20 -20 -20 -43 l34 0 q0 16 18 34 l14 15 ZM276 129 l0 41 l-40 0 l0 -41 l40 0 ZM334 427 q12 0 20.5 -8.5 q8.5 -8.5 8.5 -20.5 l0 -327 q0 -12 -8.5 -20 q-8.5 -8 -20.5 -8 l-156 0 q-12 0 -20.5 8 q-8.5 8 -8.5 20 l0 327 q0 12 8.5 20.5 q8.5 8.5 20.5 8.5 l35 0 l0 42 l86 0 l0 -42 l35 0 Z" /><glyph glyph-name="" unicode="&#xe1a7;" d="M317 164 l-40 41 l0 -81 l40 40 ZM277 388 l0 -81 l40 41 l-40 40 ZM378 348 l-92 -92 l92 -92 l-122 -121 l-21 0 l0 162 l-98 -98 l-30 30 l119 119 l-119 119 l30 30 l98 -98 l0 162 l21 0 l122 -121 Z" /><glyph glyph-name="" unicode="&#xe1a8;" d="M405 299 l43 -43 l-43 -43 l-42 43 l42 43 ZM317 164 l-40 41 l0 -81 l40 40 ZM277 388 l0 -81 l40 41 l-40 40 ZM378 348 l-92 -92 l92 -92 l-122 -121 l-21 0 l0 162 l-98 -98 l-30 30 l119 119 l-119 119 l30 30 l98 -98 l0 162 l21 0 l122 -121 ZM149 256 l-42 -43 l-43 43 l43 43 l42 -43 Z" /><glyph glyph-name="" unicode="&#xe1a9;" d="M277 124 l40 40 l-40 41 l0 -81 ZM115 427 l312 -312 l-30 -30 l-49 49 l-92 -91 l-21 0 l0 162 l-98 -98 l-30 30 l119 119 l-141 141 l30 30 ZM277 388 l0 -69 l-42 43 l0 107 l21 0 l122 -121 l-65 -65 l-30 30 l34 35 l-40 40 Z" /><glyph glyph-name="" unicode="&#xe1aa;" d="M275 164 l-40 41 l0 -81 l40 40 ZM235 388 l0 -81 l40 41 l-40 40 ZM335 348 l-92 -92 l92 -92 l-122 -121 l-21 0 l0 162 l-98 -98 l-30 30 l119 119 l-119 119 l30 30 l98 -98 l0 162 l21 0 l122 -121 ZM417 369 q31 -50 31 -111 q0 -60 -33 -113 l-25 25 q21 42 21 86 q0 44 -21 86 l27 27 ZM304 256 l49 49 q10 -25 10 -49 q0 -25 -10 -50 l-49 50 Z" /><glyph glyph-name="" unicode="&#xe1ab;" d="M305 171 l41 0 l-69 192 l-42 0 l-69 -192 l41 0 l15 42 l68 0 l15 -42 ZM427 327 l70 -71 l-70 -71 l0 -100 l-100 0 l-71 -70 l-71 70 l-100 0 l0 100 l-70 71 l70 71 l0 100 l100 0 l71 70 l71 -70 l100 0 l0 -100 ZM231 242 l25 78 l25 -78 l-50 0 Z" /><glyph glyph-name="" unicode="&#xe1ac;" d="M196 316 q25 25 60 25 q35 0 60 -25 q25 -25 25 -60 q0 -35 -25 -60 q-25 -25 -60 -25 q-35 0 -60 25 q-25 25 -25 60 q0 35 25 60 ZM165.5 165.5 q37.5 -37.5 90.5 -37.5 q53 0 90.5 37.5 q37.5 37.5 37.5 90.5 q0 53 -37.5 90.5 q-37.5 37.5 -90.5 37.5 q-53 0 -90.5 -37.5 q-37.5 -37.5 -37.5 -90.5 q0 -53 37.5 -90.5 ZM427 327 l70 -71 l-70 -71 l0 -100 l-100 0 l-71 -70 l-71 70 l-100 0 l0 100 l-70 71 l70 71 l0 100 l100 0 l71 70 l71 -70 l100 0 l0 -100 Z" /><glyph glyph-name="" unicode="&#xe1ad;" d="M165.5 165.5 q37.5 -37.5 90.5 -37.5 q53 0 90.5 37.5 q37.5 37.5 37.5 90.5 q0 53 -37.5 90.5 q-37.5 37.5 -90.5 37.5 q-53 0 -90.5 -37.5 q-37.5 -37.5 -37.5 -90.5 q0 -53 37.5 -90.5 ZM427 185 l0 -100 l-100 0 l-71 -70 l-71 70 l-100 0 l0 100 l-70 71 l70 71 l0 100 l100 0 l71 70 l71 -70 l100 0 l0 -100 l70 -71 l-70 -71 Z" /><glyph glyph-name="" unicode="&#xe1ae;" d="M256 128 q53 0 90.5 37.5 q37.5 37.5 37.5 90.5 q0 53 -37.5 90.5 q-37.5 37.5 -90.5 37.5 l0 -256 ZM427 185 l0 -100 l-100 0 l-71 -70 l-71 70 l-100 0 l0 100 l-70 71 l70 71 l0 100 l100 0 l71 70 l71 -70 l100 0 l0 -100 l70 -71 l-70 -71 Z" /><glyph glyph-name="" unicode="&#xe1af;" d="M256 107 q29 0 63 16.5 q34 16.5 53 39.5 l56 -33 q-64 -87 -172 -87 q-88 0 -150.5 62.5 q-62.5 62.5 -62.5 150.5 q0 83 55.5 143.5 q55.5 60.5 136.5 68.5 l0 -64 q-54 -8 -91 -50 q-37 -42 -37 -98 q0 -62 43.5 -105.5 q43.5 -43.5 105.5 -43.5 ZM277 468 q81 -8 136.5 -68.5 q55.5 -60.5 55.5 -143.5 q0 -48 -18 -87 l-56 33 q10 28 10 54 q0 56 -37 98 q-37 42 -91 50 l0 64 Z" /><glyph glyph-name="" unicode="&#xe1b0;" d="M363 107 l0 42 l42 0 l0 -85 q0 -17 -12.5 -30 q-12.5 -13 -29.5 -13 l-214 0 q-17 0 -29.5 13 q-12.5 13 -12.5 30 l0 85 l42 0 l0 -42 l214 0 ZM213 188 l-30 -30 l-98 98 l98 98 l30 -30 l-67 -68 l67 -68 ZM329 158 l-30 30 l67 68 l-67 68 l30 30 l98 -98 l-98 -98 ZM149 405 l0 -42 l-42 0 l0 85 q0 17 12.5 30 q12.5 13 29.5 13 l214 -1 q17 0 29.5 -12.5 q12.5 -12.5 12.5 -29.5 l0 -85 l-42 0 l0 42 l-214 0 Z" /><glyph glyph-name="" unicode="&#xe1b1;" d="M469 149 l0 150 l-85 0 l0 -150 l85 0 ZM491 341 q9 0 15 -6 q6 -6 6 -15 l0 -213 q0 -9 -6 -15.5 q-6 -6.5 -15 -6.5 l-128 0 q-9 0 -15.5 6.5 q-6.5 6.5 -6.5 15.5 l0 213 q0 9 6.5 15 q6.5 6 15.5 6 l128 0 ZM85 384 l0 -235 l214 0 l0 -64 l-299 0 l0 64 l43 0 l0 235 q0 17 12.5 30 q12.5 13 29.5 13 l384 0 l0 -43 l-384 0 Z" /><glyph glyph-name="" unicode="&#xe1b2;" d="M149 256 l0 -43 l-42 0 l0 43 l42 0 ZM149 341 l0 -42 l-42 0 l0 42 l42 0 ZM405 256 l0 -43 l-234 0 l0 43 l234 0 ZM405 341 l0 -42 l-234 0 l0 42 l234 0 ZM448 149 l0 256 l-384 0 l0 -256 l384 0 ZM448 448 q17 0 30 -13 q13 -13 13 -30 l-1 -256 q0 -17 -12.5 -29.5 q-12.5 -12.5 -29.5 -12.5 l-107 0 l0 -43 l-170 0 l0 43 l-107 0 q-17 0 -30 12.5 q-13 12.5 -13 29.5 l0 256 q0 17 13 30 q13 13 30 13 l384 0 Z" /><glyph glyph-name="" unicode="&#xe1b3;" d="M150.5 150.5 q43.5 -43.5 105.5 -43.5 q62 0 105.5 43.5 q43.5 43.5 43.5 105.5 q0 62 -43.5 105.5 q-43.5 43.5 -105.5 43.5 q-62 0 -105.5 -43.5 q-43.5 -43.5 -43.5 -105.5 q0 -62 43.5 -105.5 ZM447 277 l44 0 l0 -42 l-44 0 q-7 -63 -57 -113 q-50 -50 -113 -57 l0 -44 l-42 0 l0 44 q-63 7 -113 57 q-50 50 -57 113 l-44 0 l0 42 l44 0 q7 63 57 113 q50 50 113 57 l0 44 l42 0 l0 -44 q63 -7 113 -57 q50 -50 57 -113 ZM196 316 q25 25 60 25 q35 0 60 -25 q25 -25 25 -60 q0 -35 -25 -60 q-25 -25 -60 -25 q-35 0 -60 25 q-25 25 -25 60 q0 35 25 60 Z" /><glyph glyph-name="" unicode="&#xe1b4;" d="M150.5 150.5 q43.5 -43.5 105.5 -43.5 q62 0 105.5 43.5 q43.5 43.5 43.5 105.5 q0 62 -43.5 105.5 q-43.5 43.5 -105.5 43.5 q-62 0 -105.5 -43.5 q-43.5 -43.5 -43.5 -105.5 q0 -62 43.5 -105.5 ZM447 277 l44 0 l0 -42 l-44 0 q-7 -63 -57 -113 q-50 -50 -113 -57 l0 -44 l-42 0 l0 44 q-63 7 -113 57 q-50 50 -57 113 l-44 0 l0 42 l44 0 q7 63 57 113 q50 50 113 57 l0 44 l42 0 l0 -44 q63 -7 113 -57 q50 -50 57 -113 Z" /><glyph glyph-name="" unicode="&#xe1b5;" d="M347 138 l-209 209 q-13 -17 -22 -43.5 q-9 -26.5 -9 -47.5 q0 -62 43.5 -105.5 q43.5 -43.5 105.5 -43.5 q21 0 47.5 9 q26.5 9 43.5 22 ZM64 421 l27 27 l357 -357 l-27 -27 l-44 44 q-45 -37 -100 -43 l0 -44 l-42 0 l0 44 q-63 7 -113 57 q-50 50 -57 113 l-44 0 l0 42 l44 0 q2 23 15 52.5 q13 29.5 28 47.5 l-44 44 ZM447 277 l44 0 l0 -42 l-44 0 q-5 -39 -21 -68 l-32 32 q11 27 11 57 q0 62 -43.5 105.5 q-43.5 43.5 -105.5 43.5 q-30 0 -57 -11 l-32 32 q31 16 68 21 l0 44 l42 0 l0 -44 q63 -7 113 -57 q50 -50 57 -113 Z" /><glyph glyph-name="" unicode="&#xe1b6;" d="M347 138 l-209 209 q-13 -17 -22 -43.5 q-9 -26.5 -9 -47.5 q0 -62 43.5 -105.5 q43.5 -43.5 105.5 -43.5 q21 0 47.5 9 q26.5 9 43.5 22 ZM64 421 l27 27 l357 -357 l-27 -27 l-44 44 q-45 -37 -100 -43 l0 -44 l-42 0 l0 44 q-63 7 -113 57 q-50 50 -57 113 l-44 0 l0 42 l44 0 q2 23 15 52.5 q13 29.5 28 47.5 l-44 44 ZM447 277 l44 0 l0 -42 l-44 0 q-5 -39 -21 -68 l-32 32 q11 27 11 57 q0 62 -43.5 105.5 q-43.5 43.5 -105.5 43.5 q-30 0 -57 -11 l-32 32 q31 16 68 21 l0 44 l42 0 l0 -44 q63 -7 113 -57 q50 -50 57 -113 Z" /><glyph glyph-name="" unicode="&#xe1b7;" d="M150.5 150.5 q43.5 -43.5 105.5 -43.5 q62 0 105.5 43.5 q43.5 43.5 43.5 105.5 q0 62 -43.5 105.5 q-43.5 43.5 -105.5 43.5 q-62 0 -105.5 -43.5 q-43.5 -43.5 -43.5 -105.5 q0 -62 43.5 -105.5 ZM447 277 l44 0 l0 -42 l-44 0 q-7 -63 -57 -113 q-50 -50 -113 -57 l0 -44 l-42 0 l0 44 q-63 7 -113 57 q-50 50 -57 113 l-44 0 l0 42 l44 0 q7 63 57 113 q50 50 113 57 l0 44 l42 0 l0 -44 q63 -7 113 -57 q50 -50 57 -113 Z" /><glyph glyph-name="" unicode="&#xe1b8;" d="M405 299 l43 0 l0 -86 l-43 0 l0 86 ZM320 128 l0 256 l43 0 l0 -256 l-43 0 ZM64 213 l0 86 l43 0 l0 -86 l-43 0 ZM235 43 l0 426 l42 0 l0 -426 l-42 0 ZM149 128 l0 256 l43 0 l0 -256 l-43 0 Z" /><glyph glyph-name="" unicode="&#xe1b9;" d="M469 43 l-426 0 l426 426 l0 -426 Z" /><glyph glyph-name="" unicode="&#xe1ba;" d="M436 279 l1 -1 l-181 -224 l-181 224 q0 0 1 1 l-68 84 q121 85 248 85 q127 0 248 -85 l-68 -84 Z" /><glyph glyph-name="" unicode="&#xe1bb;" d="M384 384 l0 -256 l-256 0 l0 256 l85 0 l0 -43 l-42 0 l0 -170 l170 0 l0 170 l-64 0 l0 -48 q22 -12 22 -37 q0 -17 -13 -30 q-13 -13 -30 -13 q-17 0 -30 13 q-13 13 -13 30 q0 25 22 37 l0 48 q0 17 12.5 30 q12.5 13 29.5 13 l107 0 ZM427 85 l0 342 l-342 0 l0 -342 l342 0 ZM427 469 q17 0 29.5 -12.5 q12.5 -12.5 12.5 -29.5 l0 -342 q0 -17 -12.5 -29.5 q-12.5 -12.5 -29.5 -12.5 l-342 0 q-17 0 -29.5 12.5 q-12.5 12.5 -12.5 29.5 l0 342 q0 17 12.5 29.5 q12.5 12.5 29.5 12.5 l342 0 Z" /><glyph glyph-name="" unicode="&#xe1bc;" d="M85 235 l0 -150 l150 0 l0 -42 l-150 0 q-17 0 -29.5 12.5 q-12.5 12.5 -12.5 29.5 l0 150 l42 0 ZM427 85 l0 150 l42 0 l0 -150 q0 -17 -12.5 -29.5 q-12.5 -12.5 -29.5 -12.5 l-150 0 l0 42 l150 0 ZM427 469 q17 0 29.5 -12.5 q12.5 -12.5 12.5 -29.5 l0 -150 l-42 0 l0 150 l-150 0 l0 42 l150 0 ZM353.5 353.5 q9.5 -9.5 9.5 -22.5 q0 -13 -9.5 -22.5 q-9.5 -9.5 -22.5 -9.5 q-13 0 -22.5 9.5 q-9.5 9.5 -9.5 22.5 q0 13 9.5 22.5 q9.5 9.5 22.5 9.5 q13 0 22.5 -9.5 ZM213 235 l64 -79 l43 57 l64 -85 l-256 0 l85 107 ZM85 427 l0 -150 l-42 0 l0 150 q0 17 12.5 29.5 q12.5 12.5 29.5 12.5 l150 0 l0 -42 l-150 0 Z" /><glyph glyph-name="" unicode="&#xe1bd;" d="M355 476 l121 -121 l-121 -120 l93 0 l0 -171 l-171 0 l0 171 l78 0 l-120 120 l0 -78 l-171 0 l0 171 l171 0 l0 -93 l120 121 ZM64 64 l0 171 l171 0 l0 -171 l-171 0 Z" /><glyph glyph-name="" unicode="&#xe1be;" d="M230 299 l0 -22 l52 0 l0 22 q0 10 -7.5 17.5 q-7.5 7.5 -18.5 7.5 q-11 0 -18.5 -7.5 q-7.5 -7.5 -7.5 -17.5 ZM213 171 q-9 0 -15 6 q-6 6 -6 15 l0 64 q0 9 6 15 q6 6 15 6 l0 22 q0 18 12.5 30 q12.5 12 30.5 12 q18 0 30.5 -12 q12.5 -12 12.5 -30 l0 -22 q9 0 15 -6 q6 -6 6 -15 l0 -64 q0 -9 -6 -15 q-6 -6 -15 -6 l-86 0 ZM405 149 l0 214 l-298 0 l0 -214 l298 0 ZM448 405 q17 0 30 -12.5 q13 -12.5 13 -29.5 l0 -214 q0 -17 -13 -29.5 q-13 -12.5 -30 -12.5 l-384 0 q-17 0 -30 12.5 q-13 12.5 -13 29.5 l0 214 q0 17 13 29.5 q13 12.5 30 12.5 l384 0 Z" /><glyph glyph-name="" unicode="&#xe1bf;" d="M363 107 l0 298 l-214 0 l0 -298 l214 0 ZM363 491 q17 0 29.5 -13 q12.5 -13 12.5 -30 l0 -384 q0 -17 -12.5 -30 q-12.5 -13 -29.5 -13 l-214 0 q-17 0 -29.5 13 q-12.5 13 -12.5 30 l0 384 q0 17 12.5 30 q12.5 13 29.5 13 l214 0 ZM230 299 l0 -22 l52 0 l0 22 q0 10 -7.5 17.5 q-7.5 7.5 -18.5 7.5 q-11 0 -18.5 -7.5 q-7.5 -7.5 -7.5 -17.5 ZM213 171 q-9 0 -15 6 q-6 6 -6 15 l0 64 q0 9 6 15 q6 6 15 6 l0 22 q0 18 12.5 30 q12.5 12 30.5 12 q18 0 30.5 -12 q12.5 -12 12.5 -30 l0 -22 q9 0 15 -6 q6 -6 6 -15 l0 -64 q0 -9 -6 -15 q-6 -6 -15 -6 l-86 0 Z" /><glyph glyph-name="" unicode="&#xe1c0;" d="M358 459 l0 -11 l73 0 l0 11 q0 15 -10.5 25.5 q-10.5 10.5 -25.5 10.5 q-15 0 -26 -10.5 q-11 -10.5 -11 -25.5 ZM341 320 q-9 0 -15 6 q-6 6 -6 15 l0 86 q0 9 6 15 q6 6 15 6 l0 11 q0 22 16 37.5 q16 15.5 38 15.5 q22 0 37.5 -15.5 q15.5 -15.5 15.5 -37.5 l0 -11 q9 0 15 -6 q6 -6 6 -15 l0 -86 q0 -9 -6 -15 q-6 -6 -15 -6 l-107 0 ZM181 75 l28 28 l81 -81 l-14 -1 q-100 0 -173.5 68 q-73.5 68 -81.5 167 l32 0 q5 -53 42.5 -106 q37.5 -53 85.5 -75 ZM496 240 q10 -9 10 -22.5 q0 -13.5 -10 -23.5 l-136 -135 q-9 -10 -22 -10 q-13 0 -23 10 l-256 256 q-10 10 -10 23 q0 12 10 22 l135 136 q9 9 23 9 q14 0 23 -9 l52 -52 l-30 -30 l-45 44 l-121 -120 l242 -242 l120 121 l-47 47 l30 30 l55 -54 Z" /><glyph glyph-name="" unicode="&#xe1c1;" d="M160 54 l29 28 l81 -81 l-14 -1 q-100 0 -173.5 68 q-73.5 68 -81.5 167 l32 0 q5 -53 42 -106 q37 -53 85 -75 ZM316 60 l136 136 l-256 256 l-136 -136 l256 -256 ZM218 475 l257 -257 q10 -9 10 -22 q0 -13 -10 -23 l-136 -136 q-9 -10 -22 -10 q-13 0 -23 10 l-257 257 q-9 9 -9 22 q0 14 9 23 l136 136 q9 9 23 9 q13 0 22 -9 ZM352 458 l-29 -28 l-81 81 l14 1 q100 0 173.5 -68 q73.5 -68 81.5 -167 l-32 0 q-6 60 -40 108 q-34 48 -87 73 Z" /><glyph glyph-name="" unicode="&#xe1c2;" d="M384 341 l0 86 l-43 0 l0 -86 l43 0 ZM320 341 l0 86 l-43 0 l0 -86 l43 0 ZM256 341 l0 86 l-43 0 l0 -86 l43 0 ZM384 469 q17 0 30 -12.5 q13 -12.5 13 -29.5 l0 -342 q0 -17 -13 -29.5 q-13 -12.5 -30 -12.5 l-256 0 q-17 0 -30 12.5 q-13 12.5 -13 29.5 l1 256 l127 128 l171 0 Z" /><glyph glyph-name="" unicode="&#xe1c3;" d="M448 106 l0 300 l-384 0 l0 -300 l384 0 ZM448 448 q17 0 30 -13 q13 -13 13 -30 l0 -298 q0 -17 -13 -30 q-13 -13 -30 -13 l-384 0 q-17 0 -30 13 q-13 13 -13 30 l0 298 q0 17 13 30 q13 13 30 13 l384 0 ZM192 171 q-26 0 -45 19 q-19 19 -19 45 q0 24 16.5 42.5 q16.5 18.5 40.5 20.5 l4 0 q21 43 67 43 q28 0 49 -18.5 q21 -18.5 25 -45.5 l1 0 q22 0 37.5 -15.5 q15.5 -15.5 15.5 -37.5 q0 -22 -15.5 -37.5 q-15.5 -15.5 -37.5 -15.5 l-139 0 Z" /><glyph glyph-name="" unicode="&#xe1c8;" d="M43 43 l426 426 l0 -426 l-426 0 Z" /><glyph glyph-name="" unicode="&#xe1cd;" d="M43 43 l426 426 l0 -128 l-85 0 l0 -298 l-341 0 ZM427 43 l0 42 l42 0 l0 -42 l-42 0 ZM427 128 l0 171 l42 0 l0 -171 l-42 0 Z" /><glyph glyph-name="" unicode="&#xe1ce;" d="M78 429 l373 -372 l-28 -28 l-40 41 q-12 -6 -20 -6 l-214 0 q-17 0 -29.5 13 q-12.5 13 -12.5 30 l0 239 l-56 56 l27 27 ZM405 405 l0 -249 l-242 242 l50 50 l150 0 q17 0 29.5 -13 q12.5 -13 12.5 -30 Z" /><glyph glyph-name="" unicode="&#xe1cf;" d="M469 469 l0 -426 l-426 0 l426 426 ZM427 366 l-281 -281 l281 0 l0 281 Z" /><glyph glyph-name="" unicode="&#xe1d0;" d="M102 416 l367 -368 l-27 -27 l-42 43 l-379 0 l189 189 l-135 136 l27 27 ZM448 491 l0 -367 l-183 183 l183 184 Z" /><glyph glyph-name="" unicode="&#xe1d8;" d="M256 54 l-248 309 q121 85 248 85 q127 0 248 -85 l-248 -309 Z" /><glyph glyph-name="" unicode="&#xe1d9;" d="M331 203 l0 -56 l-75 -94 l-247 310 l6 5 q6 4 12.5 8.5 q6.5 4.5 17.5 11.5 q11 7 23.5 13 q12.5 6 28.5 13.5 q16 7.5 34 13 q18 5.5 37.5 10.5 q19.5 5 42 7.5 q22.5 2.5 45.5 2.5 q23 0 45.5 -2.5 q22.5 -2.5 42 -7.5 q19.5 -5 37.5 -10.5 q18 -5.5 34 -13 q16 -7.5 28.5 -13.5 q12.5 -6 23.5 -13 q11 -7 17.5 -11.5 q6.5 -4.5 12.5 -8.5 l6 -5 l-44 -56 q-6 2 -22 2 q-45 0 -75.5 -30.5 q-30.5 -30.5 -30.5 -75.5 ZM469 171 l0 32 q0 13 -9.5 22.5 q-9.5 9.5 -22.5 9.5 q-13 0 -22.5 -9.5 q-9.5 -9.5 -9.5 -22.5 l0 -32 l64 0 ZM491 171 q8 0 14.5 -7 q6.5 -7 6.5 -15 l0 -85 q0 -8 -6.5 -14.5 q-6.5 -6.5 -14.5 -6.5 l-107 0 q-8 0 -14.5 6.5 q-6.5 6.5 -6.5 14.5 l0 85 q0 8 6.5 15 q6.5 7 14.5 7 l0 32 q0 23 15 38 q15 15 38 15 q23 0 38.5 -15.5 q15.5 -15.5 15.5 -37.5 l0 -32 Z" /><glyph glyph-name="" unicode="&#xe1da;" d="M70 481 q12 -12 153.5 -153 q141.5 -141 213.5 -215 l-27 -27 l-71 71 l-83 -103 l-248 309 q33 27 78 47 l-43 44 l27 27 ZM504 363 l-116 -145 l-221 220 q45 10 89 10 q127 0 248 -85 Z" /><glyph glyph-name="" unicode="&#xe1db;" d="M85 277 l0 -42 l43 0 l0 42 l-43 0 ZM43 213 l0 86 l426 0 l0 -86 l-426 0 ZM128 363 l0 42 l-43 0 l0 -42 l43 0 ZM43 427 l426 0 l0 -86 l-426 0 l0 86 ZM85 149 l0 -42 l43 0 l0 42 l-43 0 ZM43 85 l0 86 l426 0 l0 -86 l-426 0 Z" /><glyph glyph-name="" unicode="&#xe1e0;" d="M320 363 l85 0 l0 -86 l-21 0 l0 -42 q0 -18 -12.5 -30.5 q-12.5 -12.5 -30.5 -12.5 l-64 0 l0 -65 q26 -14 26 -42 q0 -19 -13.5 -33 q-13.5 -14 -33.5 -14 q-20 0 -33.5 14 q-13.5 14 -13.5 33 q0 28 26 42 l0 65 l-64 0 q-18 0 -30.5 12.5 q-12.5 12.5 -12.5 30.5 l0 44 q-26 14 -26 41 q0 20 14 33.5 q14 13.5 33 13.5 q19 0 33 -13.5 q14 -13.5 14 -33.5 q0 -28 -25 -41 l0 -44 l64 0 l0 170 l-43 0 l64 86 l64 -86 l-43 0 l0 -170 l64 0 l0 42 l-21 0 l0 86 Z" /><glyph glyph-name="" unicode="&#xe1e1;" d="M469 171 l0 32 q0 13 -9.5 22.5 q-9.5 9.5 -22.5 9.5 q-13 0 -22.5 -9.5 q-9.5 -9.5 -9.5 -22.5 l0 -32 l64 0 ZM491 171 q9 0 15 -6.5 q6 -6.5 6 -15.5 l0 -85 q0 -9 -6 -15 q-6 -6 -15 -6 l-107 0 q-9 0 -15 6 q-6 6 -6 15 l0 85 q0 9 6 15.5 q6 6.5 15 6.5 l0 32 q0 22 15.5 37.5 q15.5 15.5 37.5 15.5 q22 0 38 -15.5 q16 -15.5 16 -37.5 l0 -32 ZM437 309 q-44 0 -75 -31 q-31 -31 -31 -75 l0 -61 l-75 -99 l-256 341 q112 85 256 85 q144 0 256 -85 l-57 -76 q-6 1 -18 1 Z" /><glyph glyph-name="" unicode="&#xe1e2;" d="M105.5 386 q62.5 62 150.5 62 q88 0 150.5 -62 q62.5 -62 62.5 -151 q0 -58 -28.5 -107.5 q-28.5 -49.5 -77.5 -77.5 l-22 37 q39 23 62.5 62.5 q23.5 39.5 23.5 85.5 q0 70 -50 120 q-50 50 -121 50 q-71 0 -121 -50 q-50 -50 -50 -120 q0 -47 23 -86 q23 -39 62 -62 l-21 -37 q-49 28 -77.5 77.5 q-28.5 49.5 -28.5 107.5 q0 89 62.5 151 ZM384 235 q0 -35 -17.5 -64.5 q-17.5 -29.5 -46.5 -46.5 l-21 37 q42 25 42 74 q0 35 -25 60 q-25 25 -60 25 q-35 0 -60 -25 q-25 -25 -25 -60 q0 -49 42 -74 l-21 -37 q-29 17 -46.5 46.5 q-17.5 29.5 -17.5 64.5 q0 53 37.5 90.5 q37.5 37.5 90.5 37.5 q53 0 90.5 -37.5 q37.5 -37.5 37.5 -90.5 ZM226 264.5 q13 12.5 30 12.5 q17 0 30 -12.5 q13 -12.5 13 -29.5 q0 -17 -13 -30 q-13 -13 -30 -13 q-17 0 -30 13 q-13 13 -13 30 q0 17 13 29.5 Z" /><glyph glyph-name="" unicode="&#xe1fe;" d="M213 192 l0 77 l-119 -120 l-30 30 l119 120 l-76 0 l0 42 l149 0 l0 -149 l-43 0 ZM384 490 q17 0 30 -12.5 q13 -12.5 13 -29.5 l0 -384 q0 -17 -13 -30 q-13 -13 -30 -13 l-213 0 q-17 0 -30 13 q-13 13 -13 30 l0 64 l43 0 l0 -21 l213 0 l0 298 l-213 0 l0 -21 l-43 0 l0 64 q0 17 13 30 q13 13 30 13 l213 -1 Z" /><glyph glyph-name="" unicode="&#xe1ff;" d="M235 405 l0 -128 l42 0 l0 43 l-21 0 l0 21 l21 0 l0 43 l-21 0 l0 21 l21 0 q0 9 -6 15.5 q-6 6.5 -15 6.5 q-9 0 -15 -6.5 q-6 -6.5 -6 -15.5 ZM320 235 q43 -31 43 -86 q0 -44 -31.5 -75 q-31.5 -31 -75.5 -31 q-44 0 -75.5 31 q-31.5 31 -31.5 75 q0 55 43 86 l0 170 q0 26 19 45 q19 19 45 19 q26 0 45 -19 q19 -19 19 -45 l0 -170 Z" /><glyph glyph-name="" unicode="&#xe200;" d="M150 225 l126 126 l27 -27 l-154 -153 l-81 81 l27 27 l55 -54 ZM405 491 q17 0 30 -13 q13 -13 13 -30 l0 -384 q0 -17 -13 -30 q-13 -13 -30 -13 l-213 0 q-17 0 -30 13 q-13 13 -13 30 l0 64 l43 0 l0 -43 l213 0 l0 342 l-213 0 l0 -43 l-43 0 l0 64 q0 17 13 30 q13 13 30 13 l213 0 Z" /><glyph glyph-name="" unicode="&#xe201;" d="M363 405 l-196 0 l-58 58 q10 28 40 28 l214 0 q17 0 29.5 -13 q12.5 -13 12.5 -30 l0 -281 l-42 43 l0 195 ZM149 107 l208 0 l-208 207 l0 -207 ZM59 459 l410 -410 l-27 -27 l-37 37 q-2 -16 -14 -27 q-12 -11 -28 -11 l-214 0 q-17 0 -29.5 13 q-12.5 13 -12.5 30 l0 293 l-75 75 l27 27 Z" /><glyph glyph-name="" unicode="&#xe202;" d="M235 320 l64 0 l0 -235 l-64 0 l0 235 ZM107 213 l64 0 l0 -128 l-64 0 l0 128 ZM363 427 l64 0 l0 -342 l-64 0 l0 342 Z" /></font>
</defs>
</svg>
